  0
SECTION
  2
HEADER
  9
$ACADVER
  1
AC1015
  9
$ACADMAINTVER
 70
    20
  9
$DWGCODEPAGE
  3
ANSI_936
  9
$INSBASE
 10
0.0
 20
0.0
 30
0.0
  9
$EXTMIN
 10
777.6622146818932
 20
67.94875459626211
 30
0.0
  9
$EXTMAX
 10
817.5218999051841
 20
181.5447398413169
 30
0.0
  9
$LIMMIN
 10
0.0
 20
0.0
  9
$LIMMAX
 10
12.0
 20
9.0
  9
$ORTHOMODE
 70
     1
  9
$REGENMODE
 70
     1
  9
$FILLMODE
 70
     1
  9
$QTEXTMODE
 70
     0
  9
$MIRRTEXT
 70
     0
  9
$LTSCALE
 40
1.0
  9
$ATTMODE
 70
     1
  9
$TEXTSIZE
 40
0.2
  9
$TRACEWID
 40
0.05
  9
$TEXTSTYLE
  7
STANDARD
  9
$CLAYER
  8
0
  9
$CELTYPE
  6
ByLayer
  9
$CECOLOR
 62
   256
  9
$CELTSCALE
 40
1.0
  9
$DISPSILH
 70
     0
  9
$DIMSCALE
 40
1.0
  9
$DIMASZ
 40
0.65
  9
$DIMEXO
 40
0.88
  9
$DIMDLI
 40
0.015
  9
$DIMRND
 40
0.0
  9
$DIMDLE
 40
0.0
  9
$DIMEXE
 40
0.32
  9
$DIMTP
 40
0.0
  9
$DIMTM
 40
0.0
  9
$DIMTXT
 40
0.65
  9
$DIMCEN
 40
0.09
  9
$DIMTSZ
 40
0.0
  9
$DIMTOL
 70
     0
  9
$DIMLIM
 70
     0
  9
$DIMTIH
 70
     0
  9
$DIMTOH
 70
     0
  9
$DIMSE1
 70
     0
  9
$DIMSE2
 70
     0
  9
$DIMTAD
 70
     0
  9
$DIMZIN
 70
     8
  9
$DIMBLK
  1

  9
$DIMASO
 70
     1
  9
$DIMSHO
 70
     1
  9
$DIMPOST
  1
"
  9
$DIMAPOST
  1
"
  9
$DIMALT
 70
     0
  9
$DIMALTD
 70
     1
  9
$DIMALTF
 40
0.03937
  9
$DIMLFAC
 40
1.0
  9
$DIMTOFL
 70
     1
  9
$DIMTVP
 40
0.0
  9
$DIMTIX
 70
     0
  9
$DIMSOXD
 70
     0
  9
$DIMSAH
 70
     0
  9
$DIMBLK1
  1

  9
$DIMBLK2
  1

  9
$DIMSTYLE
  2
副本STANDARD
  9
$DIMCLRD
 70
     3
  9
$DIMCLRE
 70
     3
  9
$DIMCLRT
 70
     3
  9
$DIMTFAC
 40
1.0
  9
$DIMGAP
 40
0.2
  9
$DIMJUST
 70
     0
  9
$DIMSD1
 70
     0
  9
$DIMSD2
 70
     0
  9
$DIMTOLJ
 70
     1
  9
$DIMTZIN
 70
     8
  9
$DIMALTZ
 70
     8
  9
$DIMALTTZ
 70
     8
  9
$DIMUPT
 70
     0
  9
$DIMDEC
 70
     3
  9
$DIMTDEC
 70
     3
  9
$DIMALTU
 70
     2
  9
$DIMALTTD
 70
     1
  9
$DIMTXSTY
  7
STANDARD
  9
$DIMAUNIT
 70
     0
  9
$DIMADEC
 70
     0
  9
$DIMALTRND
 40
0.0
  9
$DIMAZIN
 70
     0
  9
$DIMDSEP
 70
    46
  9
$DIMATFIT
 70
     3
  9
$DIMFRAC
 70
     2
  9
$DIMLDRBLK
  1

  9
$DIMLUNIT
 70
     5
  9
$DIMLWD
 70
    13
  9
$DIMLWE
 70
    13
  9
$DIMTMOVE
 70
     2
  9
$LUNITS
 70
     2
  9
$LUPREC
 70
     4
  9
$SKETCHINC
 40
0.1
  9
$FILLETRAD
 40
0.0
  9
$AUNITS
 70
     0
  9
$AUPREC
 70
     0
  9
$MENU
  1
.
  9
$ELEVATION
 40
0.0
  9
$PELEVATION
 40
0.0
  9
$THICKNESS
 40
0.0
  9
$LIMCHECK
 70
     0
  9
$CHAMFERA
 40
0.0
  9
$CHAMFERB
 40
0.0
  9
$CHAMFERC
 40
0.0
  9
$CHAMFERD
 40
0.0
  9
$SKPOLY
 70
     0
  9
$TDCREATE
 40
2455434.724808658
  9
$TDUCREATE
 40
2455434.391475324
  9
$TDUPDATE
 40
2457820.398413588
  9
$TDUUPDATE
 40
2457820.065080255
  9
$TDINDWG
 40
0.2093229051
  9
$TDUSRTIMER
 40
0.2093187616
  9
$USRTIMER
 70
     1
  9
$ANGBASE
 50
0.0
  9
$ANGDIR
 70
     0
  9
$PDMODE
 70
     0
  9
$PDSIZE
 40
0.0
  9
$PLINEWID
 40
0.0
  9
$SPLFRAME
 70
     0
  9
$SPLINETYPE
 70
     6
  9
$SPLINESEGS
 70
     8
  9
$HANDSEED
  5
5CD9
  9
$SURFTAB1
 70
     6
  9
$SURFTAB2
 70
     6
  9
$SURFTYPE
 70
     6
  9
$SURFU
 70
     6
  9
$SURFV
 70
     6
  9
$UCSBASE
  2

  9
$UCSNAME
  2

  9
$UCSORG
 10
0.0
 20
0.0
 30
0.0
  9
$UCSXDIR
 10
1.0
 20
0.0
 30
0.0
  9
$UCSYDIR
 10
0.0
 20
1.0
 30
0.0
  9
$UCSORTHOREF
  2

  9
$UCSORTHOVIEW
 70
     0
  9
$UCSORGTOP
 10
0.0
 20
0.0
 30
0.0
  9
$UCSORGBOTTOM
 10
0.0
 20
0.0
 30
0.0
  9
$UCSORGLEFT
 10
0.0
 20
0.0
 30
0.0
  9
$UCSORGRIGHT
 10
0.0
 20
0.0
 30
0.0
  9
$UCSORGFRONT
 10
0.0
 20
0.0
 30
0.0
  9
$UCSORGBACK
 10
0.0
 20
0.0
 30
0.0
  9
$PUCSBASE
  2

  9
$PUCSNAME
  2

  9
$PUCSORG
 10
0.0
 20
0.0
 30
0.0
  9
$PUCSXDIR
 10
1.0
 20
0.0
 30
0.0
  9
$PUCSYDIR
 10
0.0
 20
1.0
 30
0.0
  9
$PUCSORTHOREF
  2

  9
$PUCSORTHOVIEW
 70
     0
  9
$PUCSORGTOP
 10
0.0
 20
0.0
 30
0.0
  9
$PUCSORGBOTTOM
 10
0.0
 20
0.0
 30
0.0
  9
$PUCSORGLEFT
 10
0.0
 20
0.0
 30
0.0
  9
$PUCSORGRIGHT
 10
0.0
 20
0.0
 30
0.0
  9
$PUCSORGFRONT
 10
0.0
 20
0.0
 30
0.0
  9
$PUCSORGBACK
 10
0.0
 20
0.0
 30
0.0
  9
$USERI1
 70
     0
  9
$USERI2
 70
     0
  9
$USERI3
 70
     0
  9
$USERI4
 70
     0
  9
$USERI5
 70
     0
  9
$USERR1
 40
0.0
  9
$USERR2
 40
0.0
  9
$USERR3
 40
0.0
  9
$USERR4
 40
0.0
  9
$USERR5
 40
2.5
  9
$WORLDVIEW
 70
     1
  9
$SHADEDGE
 70
     3
  9
$SHADEDIF
 70
    70
  9
$TILEMODE
 70
     1
  9
$MAXACTVP
 70
    64
  9
$PINSBASE
 10
0.0
 20
0.0
 30
0.0
  9
$PLIMCHECK
 70
     0
  9
$PEXTMIN
 10
1.000000000000000E+20
 20
1.000000000000000E+20
 30
1.000000000000000E+20
  9
$PEXTMAX
 10
-1.000000000000000E+20
 20
-1.000000000000000E+20
 30
-1.000000000000000E+20
  9
$PLIMMIN
 10
0.0
 20
0.0
  9
$PLIMMAX
 10
12.0
 20
9.0
  9
$UNITMODE
 70
     0
  9
$VISRETAIN
 70
     1
  9
$PLINEGEN
 70
     0
  9
$PSLTSCALE
 70
     1
  9
$TREEDEPTH
 70
  3020
  9
$CMLSTYLE
  2
Standard
  9
$CMLJUST
 70
     0
  9
$CMLSCALE
 40
1.0
  9
$PROXYGRAPHICS
 70
     1
  9
$MEASUREMENT
 70
     0
  9
$CELWEIGHT
370
    -1
  9
$ENDCAPS
280
     0
  9
$JOINSTYLE
280
     0
  9
$LWDISPLAY
290
     0
  9
$INSUNITS
 70
     0
  9
$HYPERLINKBASE
  1

  9
$STYLESHEET
  1

  9
$XEDIT
290
     1
  9
$CEPSNTYPE
380
     0
  9
$PSTYLEMODE
290
     1
  9
$FINGERPRINTGUID
  2
{E5D2C7B4-3E08-4E2E-A54C-53BA1A535308}
  9
$VERSIONGUID
  2
{2BE0305D-C225-4B2E-BDDF-0B0FC2AFEED2}
  9
$EXTNAMES
290
     1
  9
$PSVPSCALE
 40
0.0
  9
$OLESTARTUP
290
     0
  0
ENDSEC
  0
SECTION
  2
CLASSES
  0
CLASS
  1
ACDBDICTIONARYWDFLT
  2
AcDbDictionaryWithDefault
  3
ObjectDBX Classes
 90
        0
280
     0
281
     0
  0
CLASS
  1
MATERIAL
  2
AcDbMaterial
  3
ObjectDBX Classes
 90
     1153
280
     0
281
     0
  0
CLASS
  1
VISUALSTYLE
  2
AcDbVisualStyle
  3
ObjectDBX Classes
 90
     4095
280
     0
281
     0
  0
CLASS
  1
SCALE
  2
AcDbScale
  3
ObjectDBX Classes
 90
     1153
280
     0
281
     0
  0
CLASS
  1
TABLESTYLE
  2
AcDbTableStyle
  3
ObjectDBX Classes
 90
     4095
280
     0
281
     0
  0
CLASS
  1
MLEADERSTYLE
  2
AcDbMLeaderStyle
  3
ACDB_MLEADERSTYLE_CLASS
 90
     4095
280
     0
281
     0
  0
CLASS
  1
AMGSETTINGSOBJ
  2
AmgSettingsObj
  3
"AcadM|Product Description: AutoCAD Mechanical|Company: Autodesk, Inc."
 90
     1024
280
     0
281
     0
  0
CLASS
  1
ACME_DOCUMENT
  2
AcMeDbDoc
  3
AcMeServices
 90
     1024
280
     0
281
     0
  0
CLASS
  1
ACMESCOPE
  2
AcMeScope
  3
AcMeServices
 90
     1024
280
     0
281
     0
  0
CLASS
  1
ACMECOMMANDHISTORY
  2
AcMeCommandHistory
  3
AcMeServices
 90
     1024
280
     0
281
     0
  0
CLASS
  1
ACIMSYSVARMAN
  2
AcImSysVarManager
  3
AcMeServices
 90
     1024
280
     0
281
     0
  0
CLASS
  1
ACIMINTSYSVAR
  2
AcImIntSysVar
  3
AcMeServices
 90
     1024
280
     0
281
     0
  0
CLASS
  1
ACMEDRAWINGMAN
  2
AcMeDrawingMan
  3
AcMeServices
 90
     1024
280
     0
281
     0
  0
CLASS
  1
ACMEVIEW
  2
AcMeView
  3
AcMeServices
 90
     1024
280
     0
281
     0
  0
CLASS
  1
ACDBENTITYCACHE
  2
AcMeEntityCache
  3
AcMeServices
 90
     1024
280
     0
281
     0
  0
CLASS
  1
ACMESTATEMGR
  2
AcMeStateMgr
  3
AcMeServices
 90
     1024
280
     0
281
     0
  0
CLASS
  1
ACGREFMASTER
  2
AcGrefMaster
  3
AcAttribServices
 90
     1024
280
     0
281
     0
  0
CLASS
  1
AM_DRAWING_MGR
  2
AcDmDwgMgr
  3
AcMechDwgViewMgmt
 90
     1024
280
     0
281
     0
  0
CLASS
  1
AM_DWG_DOCUMENT
  2
AcDmDwgDocument
  3
AcMechDwgViewMgmt
 90
     1024
280
     0
281
     0
  0
CLASS
  1
AM_DWG_SHEET
  2
AcDmSheet
  3
AcMechDwgViewMgmt
 90
     1024
280
     0
281
     0
  0
CLASS
  1
AM_VIEWDIMPARMAP
  2
AcDmViewDimParMap
  3
AcMechDwgViewMgmt
 90
     1024
280
     0
281
     0
  0
CLASS
  1
AMDTINTERNALREACTOR
  2
AmdtInternalReactor
  3
AcMeServices
 90
     1024
280
     0
281
     0
  0
CLASS
  1
ACIMREALSYSVAR
  2
AcImRealSysVar
  3
AcMeServices
 90
     1024
280
     0
281
     0
  0
CLASS
  1
AM_DWGMGR_NAME
  2
AcDmDwgMgrName
  3
AcMechDwgViewMgmt
 90
     1024
280
     0
281
     0
  0
CLASS
  1
ACME_DATABASE
  2
AcMeDbDatabase
  3
AcMeServices
 90
     1024
280
     0
281
     0
  0
CLASS
  1
ACRFINSADJUSTERMGR
  2
AcRfInsAdjusterMgr
  3
AcMeServices
 90
     1024
280
     0
281
     0
  0
CLASS
  1
ACGREFACADMASTER
  2
AcGrefacadMaster
  3
AcGrefServices
 90
     1024
280
     0
281
     0
  0
CLASS
  1
AMDTMENUSTATEMGR
  2
AmdtMenuStateMgr
  3
McadcomServices
 90
     1024
280
     0
281
     0
  0
CLASS
  1
AMDTMCOMMENUSTATE
  2
AmdtMcomMenuState
  3
McadcomServices
 90
     1024
280
     0
281
     0
  0
CLASS
  1
AMIMASTER
  2
AmiMaster
  3
AmiServices
 90
     1024
280
     0
281
     0
  0
CLASS
  1
MAPIAMMOUDLE
  2
MApiAmModule
  3
MApiAmServices
 90
     1024
280
     0
281
     0
  0
CLASS
  1
ACIMSTRSYSVAR
  2
AcImStrSysVar
  3
AcMeServices
 90
     1024
280
     0
281
     0
  0
CLASS
  1
AMDTADMENUSTATE
  2
AmdtAdMenuState
  3
DesignerServices
 90
     1024
280
     0
281
     0
  0
CLASS
  1
ADAPPL
  2
AcAdAppl
  3
DesignerServices
 90
     1024
280
     0
281
     0
  0
CLASS
  1
DEPMGR
  2
AcAdDepMgr
  3
DesignerServices
 90
     1024
280
     0
281
     0
  0
CLASS
  1
PARAMMGR
  2
AcAdParamMgr
  3
DesignerServices
 90
     1024
280
     0
281
     0
  0
CLASS
  1
PARAMSCOPE
  2
AcAdParamScope
  3
DesignerServices
 90
     1024
280
     0
281
     0
  0
CLASS
  1
NAMEDAPPL
  2
AcAdNamedAppl
  3
DesignerServices
 90
     1024
280
     0
281
     0
  0
CLASS
  1
AMDTDMMENUSTATE
  2
AmdtDmMenuState
  3
AcMechDwgViewMgmt
 90
     1024
280
     0
281
     0
  0
CLASS
  1
AMDTAMMENUSTATE
  2
AmdtAmMenuState
  3
DesignerAssemblies
 90
     1024
280
     0
281
     0
  0
CLASS
  1
ACAMPROJECT
  2
AcAmProject
  3
DesignerAssemblies
 90
     1024
280
     0
281
     0
  0
CLASS
  1
ACAMGRCOMPDEF
  2
AcAmGrCompDef
  3
DesignerAssemblies
 90
     1024
280
     0
281
     0
  0
CLASS
  1
ACAMCOMPDEF
  2
AcAmCompDef
  3
DesignerAssemblies
 90
     1024
280
     0
281
     0
  0
CLASS
  1
ACAMCOMPDEFMGR
  2
AcAmCompDefMgr
  3
DesignerAssemblies
 90
     1024
280
     0
281
     0
  0
CLASS
  1
AMCONTEXTMGR
  2
AcAmContextMgr
  3
DesignerAssemblies
 90
     1024
280
     0
281
     0
  0
CLASS
  1
ACAMCONTEXTMODELER
  2
AcAmContextModeler
  3
DesignerAssemblies
 90
     1024
280
     0
281
     0
  0
CLASS
  1
ACMDATADICTIONARY
  2
AcmDataDictionary
  3
"AcmSymBB|Product Description: AutoCAD Mechanical|Company: Autodesk, Inc."
 90
     1024
280
     0
281
     0
  0
CLASS
  1
CATALOGSTATE
  2
AcAmCatalogState
  3
DesignerAssemblies
 90
     1024
280
     0
281
     0
  0
CLASS
  1
ACAMGRCOMPDEFSET
  2
AcAmGrCompDefSet
  3
DesignerAssemblies
 90
     1024
280
     0
281
     0
  0
CLASS
  1
AMDTBROWSERDBTAB
  2
AmdtBrowserDbTab
  3
McadcomServices
 90
     1024
280
     0
281
     0
  0
CLASS
  1
CBROWSERAPPOBJECT
  2
CBrowserAppObject
  3
McadcomServices
 90
     1024
280
     0
281
     0
  0
CLASS
  1
DM_PLACEHOLDER
  2
AcDmSelsetPlaceholder
  3
AcMechDwgViewMgmt
 90
     1024
280
     0
281
     0
  0
CLASS
  1
EXACXREFPANELOBJECT
  2
ExAcXREFPanelObject
  3
EXAC_ESW
 90
     1025
280
     0
281
     0
  0
CLASS
  1
NPOCOLLECTION
  2
AcDbImpNonPersistentObjectsCollection
  3
ObjectDBX Classes
 90
     1153
280
     0
281
     0
  0
CLASS
  1
ACMSTANDARDANSI
  2
AcmStandardANSI
  3
"Amdt_StdImp|Product Description: AutoCAD Mechanical|Company: Autodesk, Inc."
 90
     1024
280
     0
281
     0
  0
CLASS
  1
ACMSURFSTANDARDANSI
  2
AcmSurfTextStdANSI
  3
"Amdt_StdImp|Product Description: AutoCAD Mechanical|Company: Autodesk, Inc."
 90
     1024
280
     0
281
     0
  0
CLASS
  1
ACMFCFSTANDARDANSI
  2
AcmFCFStdANSI
  3
"Amdt_StdImp|Product Description: AutoCAD Mechanical|Company: Autodesk, Inc."
 90
     1024
280
     0
281
     0
  0
CLASS
  1
ACMWELDSTANDARDANSI
  2
AcmWeldingStdANSI
  3
"Amdt_StdImp|Product Description: AutoCAD Mechanical|Company: Autodesk, Inc."
 90
     1024
280
     0
281
     0
  0
CLASS
  1
ACMIDSTANDARDANSI
  2
AcmIdStdANSI
  3
"Amdt_StdImp|Product Description: AutoCAD Mechanical|Company: Autodesk, Inc."
 90
     1024
280
     0
281
     0
  0
CLASS
  1
ACMDATUMSTANDARDANSI
  2
AcmDatumStdANSI
  3
"Amdt_StdImp|Product Description: AutoCAD Mechanical|Company: Autodesk, Inc."
 90
     1024
280
     0
281
     0
  0
CLASS
  1
ACMBOMSTANDARDANSI
  2
AcmBOMStdANSI
  3
"Amdt_StdImp|Product Description: AutoCAD Mechanical|Company: Autodesk, Inc."
 90
     1024
280
     0
281
     0
  0
CLASS
  1
ACMDETAILSTANDARDANSI
  2
AmdtDetailSymStdANSI
  3
"Amdt_StdImp|Product Description: AutoCAD Mechanical|Company: Autodesk, Inc."
 90
     1024
280
     0
281
     0
  0
CLASS
  1
ACMSECTIONSTANDARDANSI
  2
AmdtSectionSymStdANSI
  3
"Amdt_StdImp|Product Description: AutoCAD Mechanical|Company: Autodesk, Inc."
 90
     1024
280
     0
281
     0
  0
CLASS
  1
ACMCENTERLINESTANDARDANSI
  2
AmdtCenterLineStdANSI
  3
"Amdt_StdImp|Product Description: AutoCAD Mechanical|Company: Autodesk, Inc."
 90
     1024
280
     0
281
     0
  0
CLASS
  1
ACMTHREADLINESTANDARDANSI
  2
AmdtThreadLineStdANSI
  3
"Amdt_StdImp|Product Description: AutoCAD Mechanical|Company: Autodesk, Inc."
 90
     1024
280
     0
281
     0
  0
CLASS
  1
ACMNOTESTANDARDANSI
  2
AmdtNoteStdANSI
  3
"Amdt_StdImp|Product Description: AutoCAD Mechanical|Company: Autodesk, Inc."
 90
     1024
280
     0
281
     0
  0
CLASS
  1
ACMTAPERSTANDARDANSI
  2
AcmTaperStdANSI
  3
"Amdt_StdImp|Product Description: AutoCAD Mechanical|Company: Autodesk, Inc."
 90
     1024
280
     0
281
     0
  0
CLASS
  1
ACMANOOTATIONVIEWSTANDARDANSI
  2
AmdtAnViewStdANSI
  3
"Amdt_StdImp|Product Description: AutoCAD Mechanical|Company: Autodesk, Inc."
 90
     1024
280
     0
281
     0
  0
CLASS
  1
ACAMGLAYSTD
  2
AcAmgLayStd
  3
"AmgLay|Product Description: AutoCAD Mechanical|Company: Autodesk, Inc."
 90
     1024
280
     0
281
     0
  0
CLASS
  1
ACAMGDIMSTD
  2
AcAmgDimStd
  3
"AmgDim|Product Description: AutoCAD Mechanical|Company: Autodesk, Inc."
 90
     1024
280
     0
281
     0
  0
CLASS
  1
ACAMGHOLECHARTSTDANSI
  2
AcAmgHoleChartStdANSI
  3
AmgDim|Product Description: AutoCAD Mechanical|Company: Autodesk, Inc.
 90
     1024
280
     0
281
     0
  0
CLASS
  1
AMGOBJPROPCFG
  2
AmgObjPropCfg
  3
"AmgLay|Product Description: AutoCAD Mechanical|Company: Autodesk, Inc."
 90
     1025
280
     0
281
     0
  0
CLASS
  1
ACAMGTITLESTD
  2
AcAmgTitleStd
  3
"AmgTitle|Product Description: AutoCAD Mechanical|Company: Autodesk, Inc."
 90
     4095
280
     0
281
     0
  0
CLASS
  1
AMDTNOTETEMPLATEDB
  2
AmdtNoteTemplateDB
  3
AcmSymBB|Product Description: AutoCAD Mechanical|Company: Autodesk, Inc.
 90
     1024
280
     0
281
     0
  0
CLASS
  1
VLO-VL
  2
vlo_VL
  3
VL|AutoLISP based application
 90
      129
280
     0
281
     0
  0
CLASS
  1
ACAMGFILTERDAT
  2
AcAmgFilterDat
  3
"AcadM|Product Description: AutoCAD Mechanical|Company: Autodesk, Inc."
 90
    33792
280
     0
281
     0
  0
CLASS
  1
DICTIONARYVAR
  2
AcDbDictionaryVar
  3
ObjectDBX Classes
 90
        0
280
     0
281
     0
  0
CLASS
  1
CELLSTYLEMAP
  2
AcDbCellStyleMap
  3
ObjectDBX Classes
 90
     1152
280
     0
281
     0
  0
CLASS
  1
SORTENTSTABLE
  2
AcDbSortentsTable
  3
ObjectDBX Classes
 90
        0
280
     0
281
     0
  0
CLASS
  1
AEC_REFEDIT_STATUS_TRACKER
  2
AecDbRefEditStatusTracker
  3
AecArchBase60|Product Desc: Autodesk Architectural Desktop 2007 |Company: Autodesk,Inc. |WEB Address: www.autodesk.com
 90
    32897
280
     0
281
     0
  0
CLASS
  1
ACDBPLACEHOLDER
  2
AcDbPlaceHolder
  3
ObjectDBX Classes
 90
        0
280
     0
281
     0
  0
CLASS
  1
LAYOUT
  2
AcDbLayout
  3
ObjectDBX Classes
 90
        0
280
     0
281
     0
  0
CLASS
  1
ACMSTANDARDISO
  2
AcmStandardISO
  3
"Amdt_StdImp|Product Description: AutoCAD Mechanical|Company: Autodesk, Inc."
 90
    33792
280
     0
281
     0
  0
CLASS
  1
AMDTEDGESTANDARDISO13715
  2
AmdtEdgeStdISO13715
  3
"Amdt_StdImp|Product Description: AutoCAD Mechanical|Company: Autodesk, Inc."
 90
    33792
280
     0
281
     0
  0
CLASS
  1
ACMSURFSTANDARDISO2002
  2
AcmSurfTextStdISO2002
  3
"Amdt_StdImp|Product Description: AutoCAD Mechanical|Company: Autodesk, Inc."
 90
    33792
280
     0
281
     0
  0
CLASS
  1
ACMFCFSTANDARDISO
  2
AcmFCFStdISO
  3
"Amdt_StdImp|Product Description: AutoCAD Mechanical|Company: Autodesk, Inc."
 90
    33792
280
     0
281
     0
  0
CLASS
  1
ACMWELDSTANDARDISO
  2
AcmWeldingStdISO
  3
"Amdt_StdImp|Product Description: AutoCAD Mechanical|Company: Autodesk, Inc."
 90
    33792
280
     0
281
     0
  0
CLASS
  1
ACMIDSTANDARDISO
  2
AcmIdStdISO
  3
"Amdt_StdImp|Product Description: AutoCAD Mechanical|Company: Autodesk, Inc."
 90
    33792
280
     0
281
     0
  0
CLASS
  1
ACMDATUMSTANDARDISO
  2
AcmDatumStdISO
  3
"Amdt_StdImp|Product Description: AutoCAD Mechanical|Company: Autodesk, Inc."
 90
    33792
280
     0
281
     0
  0
CLASS
  1
ACMBOMSTANDARDISO
  2
AcmBOMStdISO
  3
"Amdt_StdImp|Product Description: AutoCAD Mechanical|Company: Autodesk, Inc."
 90
    33792
280
     0
281
     0
  0
CLASS
  1
ACMDETAILSTANDARDISO
  2
AmdtDetailSymStdISO
  3
"Amdt_StdImp|Product Description: AutoCAD Mechanical|Company: Autodesk, Inc."
 90
    33792
280
     0
281
     0
  0
CLASS
  1
ACMSECTIONSTANDARDISO2001
  2
AmdtSectionSymStdISO2001
  3
"Amdt_StdImp|Product Description: AutoCAD Mechanical|Company: Autodesk, Inc."
 90
    33792
280
     0
281
     0
  0
CLASS
  1
ACMCENTERLINESTANDARDISO
  2
AmdtCenterLineStdISO
  3
"Amdt_StdImp|Product Description: AutoCAD Mechanical|Company: Autodesk, Inc."
 90
    33792
280
     0
281
     0
  0
CLASS
  1
ACMTHREADLINESTANDARDISO
  2
AmdtThreadLineStdISO
  3
"Amdt_StdImp|Product Description: AutoCAD Mechanical|Company: Autodesk, Inc."
 90
    33792
280
     0
281
     0
  0
CLASS
  1
ACMNOTESTANDARDISO
  2
AmdtNoteStdISO
  3
"Amdt_StdImp|Product Description: AutoCAD Mechanical|Company: Autodesk, Inc."
 90
    33792
280
     0
281
     0
  0
CLASS
  1
ACMTAPERSTANDARDISO
  2
AcmTaperStdISO
  3
"Amdt_StdImp|Product Description: AutoCAD Mechanical|Company: Autodesk, Inc."
 90
    33792
280
     0
281
     0
  0
CLASS
  1
ACMANOOTATIONVIEWSTANDARDISO
  2
AmdtAnViewStdISO
  3
"Amdt_StdImp|Product Description: AutoCAD Mechanical|Company: Autodesk, Inc."
 90
    33792
280
     0
281
     0
  0
CLASS
  1
ACAMGHOLECHARTSTDISO
  2
AcAmgHoleChartStdISO
  3
AmgDim|Product Description: AutoCAD Mechanical|Company: Autodesk, Inc.
 90
    33792
280
     0
281
     0
  0
CLASS
  1
DIMASSOC
  2
AcDbDimAssoc
  3
"AcDbDimAssoc|Product Desc:     AcDim ARX App For Dimension|Company:          Autodesk, Inc.|WEB Address:      www.autodesk.com"
 90
        0
280
     0
281
     0
  0
ENDSEC
  0
SECTION
  2
TABLES
  0
TABLE
  2
VPORT
  5
42BF
330
0
100
AcDbSymbolTable
 70
     1
  0
VPORT
  5
4331
330
42BF
100
AcDbSymbolTableRecord
100
AcDbViewportTableRecord
  2
*ACTIVE
 70
     0
 10
0.0
 20
0.0
 11
1.0
 21
1.0
 12
796.0842913236411
 22
125.0334253335062
 13
0.0
 23
0.0
 14
0.5
 24
0.5
 15
0.5
 25
0.5
 16
0.0
 26
0.0
 36
1.0
 17
0.0
 27
0.0
 37
0.0
 40
126.6304918195318
 41
1.496765847347994
 42
50.0
 43
0.0
 44
0.0
 50
0.0
 51
0.0
 71
     0
 72
  1000
 73
     1
 74
     3
 75
     0
 76
     0
 77
     0
 78
     0
281
     0
 65
     0
110
0.0
120
0.0
130
0.0
111
1.0
121
0.0
131
0.0
112
0.0
122
1.0
132
0.0
 79
     0
146
0.0
  0
ENDTAB
  0
TABLE
  2
LTYPE
  5
42BC
330
0
100
AcDbSymbolTable
 70
    19
  0
LTYPE
  5
431C
330
42BC
100
AcDbSymbolTableRecord
100
AcDbLinetypeTableRecord
  2
ByBlock
 70
     0
  3

 72
    65
 73
     0
 40
0.0
  0
LTYPE
  5
431D
330
42BC
100
AcDbSymbolTableRecord
100
AcDbLinetypeTableRecord
  2
ByLayer
 70
     0
  3

 72
    65
 73
     0
 40
0.0
  0
LTYPE
  5
431E
330
42BC
100
AcDbSymbolTableRecord
100
AcDbLinetypeTableRecord
  2
CONTINUOUS
 70
     0
  3
Solid line
 72
    65
 73
     0
 40
0.0
  0
LTYPE
  5
4332
330
42BC
100
AcDbSymbolTableRecord
100
AcDbLinetypeTableRecord
  2
CENTER2
 70
     0
  3
Center (.5x) ___ _ ___ _ ___ _ ___ _ ___ _ ___
 72
    65
 73
     4
 40
28.575
 49
19.05
 74
     0
 49
-3.174999999999998
 74
     0
 49
3.174999999999998
 74
     0
 49
-3.174999999999998
 74
     0
  0
LTYPE
  5
4333
330
42BC
100
AcDbSymbolTableRecord
100
AcDbLinetypeTableRecord
  2
HIDDEN2
 70
     0
  3
Hidden (.5x) _ _ _ _ _ _ _ _ _ _ _ _ _ _ _ _ _
 72
    65
 73
     2
 40
4.762499999999998
 49
3.174999999999998
 74
     0
 49
-1.587499999999999
 74
     0
  0
LTYPE
  5
4334
330
42BC
100
AcDbSymbolTableRecord
100
AcDbLinetypeTableRecord
  2
CENTER
 70
     0
  3
____ _ ____ _ ____ _ ____ _ ____ _ ____ _ ____
 72
    65
 73
     4
 40
0.6
 49
0.375
 74
     0
 49
-0.075
 74
     0
 49
0.075
 74
     0
 49
-0.075
 74
     0
  0
LTYPE
  5
4335
330
42BC
100
AcDbSymbolTableRecord
100
AcDbLinetypeTableRecord
  2
HIDDEN
 70
     0
  3
Hidden __ __ __ __ __ __ __ __ __ __ __ __ __ __
 72
    65
 73
     2
 40
0.375
 49
0.25
 74
     0
 49
-0.125
 74
     0
  0
LTYPE
  5
4336
330
42BC
100
AcDbSymbolTableRecord
100
AcDbLinetypeTableRecord
  2
PHANTOM2
 70
     0
  3
Phantom (.5x) ___ _ _ ___ _ _ ___ _ _ ___ _ _
 72
    65
 73
     6
 40
1.25
 49
0.625
 74
     0
 49
-0.125
 74
     0
 49
0.125
 74
     0
 49
-0.125
 74
     0
 49
0.125
 74
     0
 49
-0.125
 74
     0
  0
LTYPE
  5
433A
330
42BC
100
AcDbSymbolTableRecord
100
AcDbLinetypeTableRecord
  2
AMCONSTR
 70
     0
  3
_______________________
 72
    65
 73
     2
 40
9999.0
 49
9999.0
 74
     0
 49
0.0
 74
     0
  0
LTYPE
  5
433E
330
42BC
100
AcDbSymbolTableRecord
100
AcDbLinetypeTableRecord
  2
AMZIGZAG2
 70
     0
  3
/\/-/\/-/\/-/\/-/\/-/\/
 72
    65
 73
     2
 40
0.4401
 49
0.0001
 74
     0
 49
-0.4400000000000003
 74
     0
  0
LTYPE
  5
433F
330
42BC
100
AcDbSymbolTableRecord
100
AcDbLinetypeTableRecord
  2
ACANSTGB
 70
     0
  3
__ . . __ . .
 72
    65
 73
     6
 40
0.35433070866
 49
0.15748031496
 74
     0
 49
-0.03937007874
 74
     0
 49
0.03937007874
 74
     0
 49
-0.03937007874
 74
     0
 49
0.03937007874
 74
     0
 49
-0.03937007874
 74
     0
  0
LTYPE
  5
4340
330
42BC
100
AcDbSymbolTableRecord
100
AcDbLinetypeTableRecord
  2
ACANSTGL
 70
     0
  3
_ _ _ _ _
 72
    65
 73
     2
 40
0.11811023622
 49
0.07874015748
 74
     0
 49
-0.03937007874
 74
     0
  0
LTYPE
  5
4AA4
330
42BC
100
AcDbSymbolTableRecord
100
AcDbLinetypeTableRecord
  2
AM_ISO02W050
 70
     0
  3
__ __ __ __ __ __ __ __ __ __ __ __ __ __ __
 72
    65
 73
     2
 40
7.5
 49
6.0
 74
     0
 49
-1.5
 74
     0
  0
LTYPE
  5
4AA5
330
42BC
100
AcDbSymbolTableRecord
100
AcDbLinetypeTableRecord
  2
AM_ISO08W050
 70
     0
  3
____ . ____ . ____ . ____ . ____ . ____ . ____
 72
    65
 73
     4
 40
18.0
 49
12.0
 74
     0
 49
-1.5
 74
     0
 49
3.0
 74
     0
 49
-1.5
 74
     0
  0
LTYPE
  5
4AA6
330
42BC
100
AcDbSymbolTableRecord
100
AcDbLinetypeTableRecord
  2
AM_ISO09W050
 70
     0
  3
_____ . . _____ . . _____ . . ____ .. ____
 72
    65
 73
     6
 40
22.5
 49
12.0
 74
     0
 49
-1.5
 74
     0
 49
3.0
 74
     0
 49
-1.5
 74
     0
 49
3.0
 74
     0
 49
-1.5
 74
     0
  0
LTYPE
  5
4AA7
330
42BC
100
AcDbSymbolTableRecord
100
AcDbLinetypeTableRecord
  2
AM_ISO08W050x2
 70
     0
  3
__ . __ . __ . __ . __ . __
 72
    65
 73
     4
 40
9.0
 49
6.0
 74
     0
 49
-0.75
 74
     0
 49
1.5
 74
     0
 49
-0.75
 74
     0
  0
LTYPE
  5
4AA8
330
42BC
100
AcDbSymbolTableRecord
100
AcDbLinetypeTableRecord
  2
AM_ISO02W050x2
 70
     0
  3
 _ _ _ _ _ _ _ _ _ _ _ _
 72
    65
 73
     2
 40
3.75
 49
3.0
 74
     0
 49
-0.75
 74
     0
  0
LTYPE
  5
4AAB
330
42BC
100
AcDbSymbolTableRecord
100
AcDbLinetypeTableRecord
  2
Amzigzag
 70
     0
  3
/\/-/\/-/\/-/\/-/\/-/\/
 72
    65
 73
     2
 40
11.0001
 49
0.0001
 74
     4
 75
   136
340
4AAA
 46
0.04
 50
0.0
 44
0.0
 45
0.0
 49
-11.0
 74
     0
  0
LTYPE
  5
4DCE
330
42BC
100
AcDbSymbolTableRecord
100
AcDbLinetypeTableRecord
  2
ACISOWELD
 70
     0
  3
_ _ _ _ _
 72
    65
 73
     2
 40
2.0
 49
2.0
 74
     0
 49
-1.0
 74
     0
  0
LTYPE
  5
4DCF
330
42BC
100
AcDbSymbolTableRecord
100
AcDbLinetypeTableRecord
  2
ACISOTGB
 70
     0
  3
__ . . __ . .
 72
    65
 73
     6
 40
9.0
 49
4.0
 74
     0
 49
-1.0
 74
     0
 49
1.0
 74
     0
 49
-1.0
 74
     0
 49
1.0
 74
     0
 49
-1.0
 74
     0
  0
LTYPE
  5
4DD0
330
42BC
100
AcDbSymbolTableRecord
100
AcDbLinetypeTableRecord
  2
ACISOTGL
 70
     0
  3
_ _ _ _ _
 72
    65
 73
     2
 40
3.0
 49
2.0
 74
     0
 49
-1.0
 74
     0
  0
ENDTAB
  0
TABLE
  2
LAYER
  5
42B9
102
{ACAD_XDICTIONARY
360
46A5
102
}
330
0
100
AcDbSymbolTable
 70
     8
  0
LAYER
  5
4316
102
{ACAD_XDICTIONARY
360
44F0
102
}
330
42B9
100
AcDbSymbolTableRecord
100
AcDbLayerTableRecord
  2
0
 70
     0
 62
     7
  6
CONTINUOUS
370
    20
390
42C6
  0
LAYER
  5
4341
102
{ACAD_XDICTIONARY
360
44F2
102
}
330
42B9
100
AcDbSymbolTableRecord
100
AcDbLayerTableRecord
  2
中心线
 70
     0
 62
     1
  6
CENTER2
370
    13
390
42C6
  0
LAYER
  5
4342
102
{ACAD_XDICTIONARY
360
44F4
102
}
330
42B9
100
AcDbSymbolTableRecord
100
AcDbLayerTableRecord
  2
虚线
 70
     0
 62
     4
  6
HIDDEN2
370
    13
390
42C6
  0
LAYER
  5
4343
330
42B9
100
AcDbSymbolTableRecord
100
AcDbLayerTableRecord
  2
DEFPOINTS
 70
     0
 62
     7
  6
CONTINUOUS
290
     0
370
    -3
390
42C6
  0
LAYER
  5
4344
102
{ACAD_XDICTIONARY
360
44F6
102
}
330
42B9
100
AcDbSymbolTableRecord
100
AcDbLayerTableRecord
  2
标注
 70
     0
 62
    80
  6
CONTINUOUS
370
    13
390
42C6
  0
LAYER
  5
4345
102
{ACAD_XDICTIONARY
360
44F8
102
}
330
42B9
100
AcDbSymbolTableRecord
100
AcDbLayerTableRecord
  2
截面层
 70
     0
 62
     6
  6
CONTINUOUS
370
    20
390
42C6
  0
LAYER
  5
4347
102
{ACAD_XDICTIONARY
360
44FA
102
}
330
42B9
100
AcDbSymbolTableRecord
100
AcDbLayerTableRecord
  2
细实线
 70
     0
 62
     7
  6
CONTINUOUS
370
    15
390
42C6
  0
LAYER
  5
5369
102
{ACAD_XDICTIONARY
360
536A
102
}
330
42B9
100
AcDbSymbolTableRecord
100
AcDbLayerTableRecord
  2
剖面线
 70
     0
 62
   200
  6
CONTINUOUS
370
    20
390
42C6
  0
ENDTAB
  0
TABLE
  2
STYLE
  5
42BA
330
0
100
AcDbSymbolTable
 70
     6
  0
STYLE
  5
4317
330
42BA
100
AcDbSymbolTableRecord
100
AcDbTextStyleTableRecord
  2
STANDARD
 70
     0
 40
0.0
 41
1.0
 50
0.0
 71
     0
 42
0.2
  3
SimSun.ttf
  4

1001
ACAD
1000
SimSun
1071
    34306
  0
STYLE
  5
434B
330
42BA
100
AcDbSymbolTableRecord
100
AcDbTextStyleTableRecord
  2
ACANSGDT
 70
     0
 40
0.0
 41
1.0
 50
0.0
 71
     0
 42
0.2
  3
amgdt.shx
  4

  0
STYLE
  5
469E
330
42BA
100
AcDbSymbolTableRecord
100
AcDbTextStyleTableRecord
  2
Roman
 70
     0
 40
0.0
 41
1.0
 50
0.0
 71
     0
 42
0.065
  3
arial_4.ttf
  4

1001
ACAD
1000
Arial
1071
       34
  0
STYLE
  5
4AAA
330
42BA
100
AcDbSymbolTableRecord
100
AcDbTextStyleTableRecord
  2

 70
     1
 40
0.0
 41
1.0
 50
0.0
 71
     0
 42
0.2
  3
genltshp.shx
  4

  0
STYLE
  5
4AAD
330
42BA
100
AcDbSymbolTableRecord
100
AcDbTextStyleTableRecord
  2
ACANSTS
 70
     0
 40
1.0
 41
1.0
 50
0.0
 71
     0
 42
0.2
  3
romans.shx
  4
gbcbig.shx
  0
STYLE
  5
4DD1
330
42BA
100
AcDbSymbolTableRecord
100
AcDbTextStyleTableRecord
  2
ACISOGDT
 70
     0
 40
0.0
 41
1.0
 50
0.0
 71
     0
 42
2.5
  3
amgdt.shx
  4

  0
ENDTAB
  0
TABLE
  2
VIEW
  5
42BD
330
0
100
AcDbSymbolTable
 70
     0
  0
ENDTAB
  0
TABLE
  2
UCS
  5
42BE
330
0
100
AcDbSymbolTable
 70
     0
  0
ENDTAB
  0
TABLE
  2
APPID
  5
42C0
330
0
100
AcDbSymbolTable
 70
    31
  0
APPID
  5
4318
330
42C0
100
AcDbSymbolTableRecord
100
AcDbRegAppTableRecord
  2
ACAD
 70
     0
  0
APPID
  5
431F
330
42C0
100
AcDbSymbolTableRecord
100
AcDbRegAppTableRecord
  2
ACADANNOTATIVE
 70
     0
  0
APPID
  5
434C
330
42C0
100
AcDbSymbolTableRecord
100
AcDbRegAppTableRecord
  2
ACAECLAYERSTANDARD
 70
     0
  0
APPID
  5
434D
330
42C0
100
AcDbSymbolTableRecord
100
AcDbRegAppTableRecord
  2
ACAD_DSTYLE_DIMEXT_LENGTH
 70
     0
  0
APPID
  5
434E
330
42C0
100
AcDbSymbolTableRecord
100
AcDbRegAppTableRecord
  2
ACAD_DSTYLE_DIMEXT_ENABLED
 70
     0
  0
APPID
  5
434F
330
42C0
100
AcDbSymbolTableRecord
100
AcDbRegAppTableRecord
  2
ACAD_DSTYLE_DIMJOGGED_JOGA
 70
     0
  0
APPID
  5
4350
330
42C0
100
AcDbSymbolTableRecord
100
AcDbRegAppTableRecord
  2
ACAD_DSTYLE_DIMARC_LENGTH_
 70
     0
  0
APPID
  5
4351
330
42C0
100
AcDbSymbolTableRecord
100
AcDbRegAppTableRecord
  2
ACAD_PSEXT
 70
     0
  0
APPID
  5
4352
330
42C0
100
AcDbSymbolTableRecord
100
AcDbRegAppTableRecord
  2
ACAD_DSTYLE_DIMJAG
 70
     0
  0
APPID
  5
4353
330
42C0
100
AcDbSymbolTableRecord
100
AcDbRegAppTableRecord
  2
ACAD_DSTYLE_DIMTALN
 70
     0
  0
APPID
  5
4354
330
42C0
100
AcDbSymbolTableRecord
100
AcDbRegAppTableRecord
  2
ACAD_MLEADERVER
 70
     0
  0
APPID
  5
4355
330
42C0
100
AcDbSymbolTableRecord
100
AcDbRegAppTableRecord
  2
ACAD_DSTYLE_DIMRADIAL_EXTENSION
 70
     0
  0
APPID
  5
4356
330
42C0
100
AcDbSymbolTableRecord
100
AcDbRegAppTableRecord
  2
ACAD_EXEMPT_FROM_CAD_STANDARDS
 70
     0
  0
APPID
  5
4357
330
42C0
100
AcDbSymbolTableRecord
100
AcDbRegAppTableRecord
  2
MCAD_NO_VIS
 70
     0
  0
APPID
  5
4358
330
42C0
100
AcDbSymbolTableRecord
100
AcDbRegAppTableRecord
  2
ACAD_TEMP_GRAPHIC
 70
     0
  0
APPID
  5
4359
330
42C0
100
AcDbSymbolTableRecord
100
AcDbRegAppTableRecord
  2
AD_DRAW
 70
     0
  0
APPID
  5
435A
330
42C0
100
AcDbSymbolTableRecord
100
AcDbRegAppTableRecord
  2
ACATTRIBSERVICES
 70
     0
  0
APPID
  5
435B
330
42C0
100
AcDbSymbolTableRecord
100
AcDbRegAppTableRecord
  2
DESIGNERASSEMBLIES
 70
     0
  0
APPID
  5
435C
330
42C0
100
AcDbSymbolTableRecord
100
AcDbRegAppTableRecord
  2
ACADM_DIM_EDIT
 70
     0
  0
APPID
  5
435D
330
42C0
100
AcDbSymbolTableRecord
100
AcDbRegAppTableRecord
  2
AMDT_DM_ADJ
 70
     0
  0
APPID
  5
435E
330
42C0
100
AcDbSymbolTableRecord
100
AcDbRegAppTableRecord
  2
ACAD_DSTYLE_DIMBREAK
 70
     0
  0
APPID
  5
435F
330
42C0
100
AcDbSymbolTableRecord
100
AcDbRegAppTableRecord
  2
ACAD_DSTYLE_DIMINSPECT
 70
     0
  0
APPID
  5
4360
330
42C0
100
AcDbSymbolTableRecord
100
AcDbRegAppTableRecord
  2
GENIUS_GENODEF_13
 70
     0
  0
APPID
  5
4361
330
42C0
100
AcDbSymbolTableRecord
100
AcDbRegAppTableRecord
  2
GENIUS_GENOBJ-N-FIL_13
 70
     0
  0
APPID
  5
4537
330
42C0
100
AcDbSymbolTableRecord
100
AcDbRegAppTableRecord
  2
AcadAnnoPO
 70
     0
  0
APPID
  5
46A4
330
42C0
100
AcDbSymbolTableRecord
100
AcDbRegAppTableRecord
  2
ACAD_DSTYLE_DIMJOGGED_JOGANGLE_SYMBOL
 70
     0
  0
APPID
  5
4A30
330
42C0
100
AcDbSymbolTableRecord
100
AcDbRegAppTableRecord
  2
ACAD_DSTYLE_DIM_LINETYPE
 70
     0
  0
APPID
  5
4A31
330
42C0
100
AcDbSymbolTableRecord
100
AcDbRegAppTableRecord
  2
ACAD_DSTYLE_DIM_EXT1_LINETYPE
 70
     0
  0
APPID
  5
4A32
330
42C0
100
AcDbSymbolTableRecord
100
AcDbRegAppTableRecord
  2
ACAD_DSTYLE_DIM_EXT2_LINETYPE
 70
     0
  0
APPID
  5
4DDD
330
42C0
100
AcDbSymbolTableRecord
100
AcDbRegAppTableRecord
  2
AcDbBlockRepETag
 70
     0
  0
APPID
  5
52AD
330
42C0
100
AcDbSymbolTableRecord
100
AcDbRegAppTableRecord
  2
ACAD_DSTYLE_DIMARC_LENGTH_SYMBOL
 70
     0
  0
ENDTAB
  0
TABLE
  2
DIMSTYLE
  5
42C1
330
0
100
AcDbSymbolTable
 70
    26
100
AcDbDimStyleTable
 71
     2
340
4364
340
4319
  0
DIMSTYLE
105
4319
330
42C1
100
AcDbSymbolTableRecord
100
AcDbDimStyleTableRecord
  2
STANDARD
 70
     0
274
     1
279
     2
284
     8
285
     8
286
     8
340
4317
  0
DIMSTYLE
105
4364
102
{ACAD_REACTORS
330
59A4
330
5927
330
5926
330
59AA
330
5929
330
5925
330
59A7
330
5928
102
}
330
42C1
100
AcDbSymbolTableRecord
100
AcDbDimStyleTableRecord
  2
副本STANDARD
 70
     0
  3
"
  4
"
 41
0.65
 42
0.88
 43
0.015
 44
0.32
 73
     0
 74
     0
 78
     8
140
0.65
143
0.03937
147
0.2
171
     1
172
     1
176
     3
177
     3
178
     3
271
     3
272
     3
274
     1
276
     2
277
     5
279
     2
284
     8
285
     8
286
     8
340
4317
371
    13
372
    13
1001
ACAD_DSTYLE_DIMJAG
1070
   388
1040
1.5
1001
ACAD_DSTYLE_DIMTALN
1070
   392
1070
     0
1001
ACAD_DSTYLE_DIM_LINETYPE
1070
   380
1005
431E
1001
ACAD_DSTYLE_DIM_EXT1_LINETYPE
1070
   381
1005
431E
1001
ACAD_DSTYLE_DIM_EXT2_LINETYPE
1070
   382
1005
431E
  0
DIMSTYLE
105
4365
102
{ACAD_REACTORS
330
5C89
102
}
330
42C1
100
AcDbSymbolTableRecord
100
AcDbDimStyleTableRecord
  2
AM_ANSI
 70
     0
  4
mm
 41
0.12
 42
0.05
 43
0.5
 44
0.1
 47
0.1
 48
0.1
 78
     7
140
0.12
141
0.0
146
0.71
147
0.06
176
   256
177
   256
178
     2
274
     1
279
     2
284
     8
285
     8
286
     8
340
4317
  0
DIMSTYLE
105
4366
330
42C1
100
AcDbSymbolTableRecord
100
AcDbDimStyleTableRecord
  2
AM_ANSI$3
 70
     0
  4
mm
 41
0.12
 42
0.05
 43
0.5
 44
0.1
 47
0.1
 48
0.1
 78
     7
140
0.12
141
0.0
146
0.71
147
0.06
176
   256
177
   256
178
     2
274
     1
279
     2
284
     8
285
     8
286
     8
340
4317
  0
DIMSTYLE
105
4367
330
42C1
100
AcDbSymbolTableRecord
100
AcDbDimStyleTableRecord
  2
AM_ANSI$4
 70
     0
  4
mm
 41
0.12
 42
0.05
 43
0.5
 44
0.1
 47
0.1
 48
0.1
 78
     7
140
0.12
141
0.0
146
0.71
147
0.06
176
   256
177
   256
178
     2
274
     1
279
     2
284
     8
285
     8
286
     8
340
4317
  0
DIMSTYLE
105
4368
330
42C1
100
AcDbSymbolTableRecord
100
AcDbDimStyleTableRecord
  2
AM_ANSI$7
 70
     0
  4
mm
 41
0.12
 42
0.05
 43
0.5
 44
0.1
 47
0.1
 48
0.1
 78
     7
140
0.12
141
0.0
146
0.71
147
0.06
176
   256
177
   256
178
     2
274
     1
279
     2
284
     8
285
     8
286
     8
340
4317
  0
DIMSTYLE
105
4369
330
42C1
100
AcDbSymbolTableRecord
100
AcDbDimStyleTableRecord
  2
AM_ANSI$SF
 70
     0
  4
mm
 41
0.12
 42
0.05
 43
0.5
 44
0.1
 47
0.1
 48
0.1
 75
     1
 76
     1
 78
     7
140
0.12
141
0.0
146
0.71
147
0.06
176
   256
177
   256
178
     2
274
     1
279
     2
284
     8
285
     8
286
     8
340
4317
  0
DIMSTYLE
105
436A
330
42C1
100
AcDbSymbolTableRecord
100
AcDbDimStyleTableRecord
  2
AM_ANSI$SH
 70
     0
  4
mm
 41
0.12
 42
0.05
 43
0.5
 44
0.1
 47
0.1
 48
0.1
 75
     1
 76
     1
 78
     7
140
0.12
141
0.0
146
0.71
147
0.06
173
     1
176
   256
177
   256
178
     2
274
     1
279
     2
284
     8
285
     8
286
     8
340
4317
  0
DIMSTYLE
105
4B21
330
42C1
100
AcDbSymbolTableRecord
100
AcDbDimStyleTableRecord
  2
副本Standard2
 70
     0
  4
"
 41
14.0
 42
22.0
 44
8.0
 73
     0
 74
     0
 78
     8
 79
     2
140
14.0
143
0.03937
147
5.0
170
     1
171
     3
172
     1
176
   256
177
   256
178
   256
179
     1
271
     1
272
     1
273
     7
274
     3
278
    44
340
4317
1001
ACAD_DSTYLE_DIMBREAK
1070
   391
1040
0.125
1001
ACAD_DSTYLE_DIMJAG
1070
   388
1040
1.5
1001
ACAD_DSTYLE_DIMTALN
1070
   392
1070
     0
  0
DIMSTYLE
105
4B22
330
42C1
100
AcDbSymbolTableRecord
100
AcDbDimStyleTableRecord
  2
毫米英寸
 70
     0
  3
mm
  4
"
 41
16.0
 42
8.0
 43
3.75
 44
1.25
 73
     0
 74
     0
 77
     1
 78
     8
140
18.0
141
15.0
143
0.03937007874016
147
3.0
170
     1
171
     3
172
     1
176
     3
177
     3
178
     3
271
     0
272
     0
273
     7
274
     3
276
     2
278
    44
283
     0
284
     8
340
4317
371
     5
372
     5
1001
ACAD_DSTYLE_DIMBREAK
1070
   391
1040
0.125
1001
ACAD_DSTYLE_DIMJAG
1070
   388
1040
1.5
1001
ACAD_DSTYLE_DIMTALN
1070
   392
1070
     0
1001
ACAD_DSTYLE_DIMEXT_LENGTH
1070
   378
1040
1.25
1001
ACAD_DSTYLE_DIM_LINETYPE
1070
   380
1005
431E
1001
ACAD_DSTYLE_DIM_EXT1_LINETYPE
1070
   381
1005
431E
1001
ACAD_DSTYLE_DIM_EXT2_LINETYPE
1070
   382
1005
431E
  0
DIMSTYLE
105
4DD2
330
42C1
100
AcDbSymbolTableRecord
100
AcDbDimStyleTableRecord
  2
ISO-25
 70
     0
 41
15.0
 42
0.0
 43
3.75
 44
1.25
 73
     0
 74
     0
 78
     8
140
18.0
141
2.5
143
0.03937007874016
147
3.0
171
     4
172
     1
176
     3
177
     3
178
     3
271
     1
272
     1
273
     7
274
     4
278
    44
283
     0
284
     8
340
469E
371
    13
372
    13
1001
ACAD_DSTYLE_DIMJAG
1070
   388
1040
1.5
1001
ACAD_DSTYLE_DIMTALN
1070
   392
1070
     0
1001
ACAD_DSTYLE_DIMEXT_LENGTH
1070
   378
1040
1.25
1001
ACAD_DSTYLE_DIMJOGGED_JOGANGLE_SYMBOL
1070
   384
1040
1.570796326794896
1001
ACAD_DSTYLE_DIM_LINETYPE
1070
   380
1005
431E
1001
ACAD_DSTYLE_DIM_EXT1_LINETYPE
1070
   381
1005
431E
1001
ACAD_DSTYLE_DIM_EXT2_LINETYPE
1070
   382
1005
431E
  0
DIMSTYLE
105
4DD3
330
42C1
100
AcDbSymbolTableRecord
100
AcDbDimStyleTableRecord
  2
01
 70
     0
 41
10.0
 42
0.625
 43
3.75
 44
1.25
 73
     0
 74
     0
 77
     1
 78
     8
140
15.0
141
2.5
143
0.03937007874016
147
3.0
171
     3
172
     1
176
     6
177
     6
271
     2
272
     2
274
     3
278
    44
283
     0
284
     8
340
4317
371
     5
372
     5
1001
ACAD_DSTYLE_DIMEXT_LENGTH
1070
   378
1040
1.25
1001
ACAD_DSTYLE_DIMJOGGED_JOGANGLE_SYMBOL
1070
   384
1040
1.570796326794896
  0
DIMSTYLE
105
4DD4
330
42C1
100
AcDbSymbolTableRecord
100
AcDbDimStyleTableRecord
  2
副本01
 70
     0
 41
10.0
 42
2.0
 43
3.75
 44
2.0
 73
     0
 77
     1
 78
     9
140
15.0
141
0.5
143
0.03937007874
147
-3.0
172
     1
176
     6
177
     6
178
   256
271
     0
272
     0
283
     0
284
     8
285
    12
340
4317
371
     5
372
     5
1001
ACAD_DSTYLE_DIMEXT_LENGTH
1070
   378
1040
1.25
1001
ACAD_DSTYLE_DIMJOGGED_JOGANGLE_SYMBOL
1070
   384
1040
1.570796326794896
  0
DIMSTYLE
105
4DD5
330
42C1
100
AcDbSymbolTableRecord
100
AcDbDimStyleTableRecord
  2
AM_ISO
 70
     0
  4
"
 41
3.5
 42
1.0
 43
10.0
 44
1.0
 47
0.1
 48
0.1
 73
     0
 74
     0
 77
     1
 78
     8
 79
     2
140
3.5
141
0.0
143
0.0393701
146
0.71
147
1.5
172
     1
176
   256
177
   256
178
     2
271
     2
272
     3
274
     4
283
     0
284
     8
340
4317
371
    -1
372
    -1
1001
ACAD_DSTYLE_DIMJAG
1070
   388
1040
1.5
1001
ACAD_DSTYLE_DIMBREAK
1070
   391
1040
3.75
1001
ACAD_DSTYLE_DIMARC_LENGTH_SYMBOL
1070
   379
1070
     1
1001
ACAD_DSTYLE_DIM_LINETYPE
1070
   380
1005
431C
1001
ACAD_DSTYLE_DIM_EXT1_LINETYPE
1070
   381
1005
431C
1001
ACAD_DSTYLE_DIM_EXT2_LINETYPE
1070
   382
1005
431C
  0
DIMSTYLE
105
4DD6
330
42C1
100
AcDbSymbolTableRecord
100
AcDbDimStyleTableRecord
  2
AM_ISO$3
 70
     0
  4
"
 41
3.5
 42
1.0
 43
10.0
 44
1.0
 47
0.1
 48
0.1
 73
     0
 77
     1
 78
     8
 79
     2
140
3.5
141
0.0
143
0.0393701
146
0.71
147
1.5
176
   256
177
   256
178
     2
271
     2
272
     3
274
     4
283
     0
284
     8
288
     1
289
     0
340
4317
371
    -1
372
    -1
1001
ACAD_DSTYLE_DIMBREAK
1070
   391
1040
3.75
1001
ACAD_DSTYLE_DIMJAG
1070
   388
1040
1.5
1001
ACAD_DSTYLE_DIMARC_LENGTH_SYMBOL
1070
   379
1070
     1
1001
ACAD_DSTYLE_DIM_LINETYPE
1070
   380
1005
431C
1001
ACAD_DSTYLE_DIM_EXT1_LINETYPE
1070
   381
1005
431C
1001
ACAD_DSTYLE_DIM_EXT2_LINETYPE
1070
   382
1005
431C
  0
DIMSTYLE
105
4DD7
330
42C1
100
AcDbSymbolTableRecord
100
AcDbDimStyleTableRecord
  2
AM_ISO$4
 70
     0
  4
"
 41
3.5
 42
1.0
 43
10.0
 44
1.0
 47
0.1
 48
0.1
 73
     0
 77
     1
 78
     8
 79
     2
140
3.5
141
0.0
143
0.0393701
146
0.71
147
1.5
176
   256
177
   256
178
     2
271
     2
272
     3
274
     4
283
     0
284
     8
288
     1
289
     0
340
4317
371
    -1
372
    -1
1001
ACAD_DSTYLE_DIMBREAK
1070
   391
1040
3.75
1001
ACAD_DSTYLE_DIMJAG
1070
   388
1040
1.5
1001
ACAD_DSTYLE_DIMARC_LENGTH_SYMBOL
1070
   379
1070
     1
1001
ACAD_DSTYLE_DIM_LINETYPE
1070
   380
1005
431C
1001
ACAD_DSTYLE_DIM_EXT1_LINETYPE
1070
   381
1005
431C
1001
ACAD_DSTYLE_DIM_EXT2_LINETYPE
1070
   382
1005
431C
  0
DIMSTYLE
105
4DD8
330
42C1
100
AcDbSymbolTableRecord
100
AcDbDimStyleTableRecord
  2
AM_ISO$6
 70
     0
  4
"
 41
3.5
 42
1.0
 43
10.0
 44
1.0
 47
0.1
 48
0.1
 73
     0
 74
     0
 78
     8
 79
     2
140
3.5
141
0.0
143
0.0393701
146
0.71
147
1.5
172
     1
176
   256
177
   256
178
     2
271
     2
272
     3
274
     4
283
     0
284
     8
340
4317
371
    -1
372
    -1
1001
ACAD_DSTYLE_DIMBREAK
1070
   391
1040
3.75
1001
ACAD_DSTYLE_DIMJAG
1070
   388
1040
1.5
1001
ACAD_DSTYLE_DIMARC_LENGTH_SYMBOL
1070
   379
1070
     1
1001
ACAD_DSTYLE_DIM_LINETYPE
1070
   380
1005
431C
1001
ACAD_DSTYLE_DIM_EXT1_LINETYPE
1070
   381
1005
431C
1001
ACAD_DSTYLE_DIM_EXT2_LINETYPE
1070
   382
1005
431C
  0
DIMSTYLE
105
4DD9
330
42C1
100
AcDbSymbolTableRecord
100
AcDbDimStyleTableRecord
  2
AM_ISO$7
 70
     0
  4
"
 41
3.5
 42
1.0
 43
10.0
 44
1.0
 47
0.1
 48
0.1
 73
     0
 74
     0
 77
     1
 78
     8
 79
     2
140
3.5
141
0.0
143
0.0393701
146
0.71
147
1.5
172
     1
176
   256
177
   256
178
     2
271
     2
272
     3
274
     4
283
     0
284
     8
340
4317
371
    -1
372
    -1
1001
ACAD_DSTYLE_DIMBREAK
1070
   391
1040
3.75
1001
ACAD_DSTYLE_DIMJAG
1070
   388
1040
1.5
1001
ACAD_DSTYLE_DIMARC_LENGTH_SYMBOL
1070
   379
1070
     1
1001
ACAD_DSTYLE_DIM_LINETYPE
1070
   380
1005
431C
1001
ACAD_DSTYLE_DIM_EXT1_LINETYPE
1070
   381
1005
431C
1001
ACAD_DSTYLE_DIM_EXT2_LINETYPE
1070
   382
1005
431C
  0
DIMSTYLE
105
4DDA
330
42C1
100
AcDbSymbolTableRecord
100
AcDbDimStyleTableRecord
  2
AM_ISO$SF
 70
     0
  4
"
 41
3.5
 42
1.0
 43
10.0
 44
1.0
 47
0.1
 48
0.1
 73
     0
 74
     0
 75
     1
 76
     1
 77
     1
 78
     8
 79
     2
140
3.5
141
0.0
143
0.0393701
146
0.71
147
1.5
172
     1
176
   256
177
   256
178
     2
271
     2
272
     3
274
     4
283
     0
284
     8
340
4317
371
    -1
372
    -1
1001
ACAD_DSTYLE_DIMBREAK
1070
   391
1040
3.75
1001
ACAD_DSTYLE_DIMJAG
1070
   388
1040
1.5
1001
ACAD_DSTYLE_DIMARC_LENGTH_SYMBOL
1070
   379
1070
     1
1001
ACAD_DSTYLE_DIM_LINETYPE
1070
   380
1005
431C
1001
ACAD_DSTYLE_DIM_EXT1_LINETYPE
1070
   381
1005
431C
1001
ACAD_DSTYLE_DIM_EXT2_LINETYPE
1070
   382
1005
431C
  0
DIMSTYLE
105
4DDB
330
42C1
100
AcDbSymbolTableRecord
100
AcDbDimStyleTableRecord
  2
AM_ISO$SH
 70
     0
  4
"
 41
3.5
 42
1.0
 43
10.0
 44
1.0
 47
0.1
 48
0.1
 73
     0
 74
     0
 75
     1
 76
     1
 77
     1
 78
     8
 79
     2
140
3.5
141
0.0
143
0.0393701
144
2.0
146
0.71
147
1.5
172
     1
173
     1
176
   256
177
   256
178
     2
271
     2
272
     3
274
     4
283
     0
284
     8
340
4317
343
4B1D
371
    -1
372
    -1
1001
ACAD_DSTYLE_DIMBREAK
1070
   391
1040
3.75
1001
ACAD_DSTYLE_DIMJAG
1070
   388
1040
1.5
1001
ACAD_DSTYLE_DIMARC_LENGTH_SYMBOL
1070
   379
1070
     1
1001
ACAD_DSTYLE_DIM_LINETYPE
1070
   380
1005
431C
1001
ACAD_DSTYLE_DIM_EXT1_LINETYPE
1070
   381
1005
431C
1001
ACAD_DSTYLE_DIM_EXT2_LINETYPE
1070
   382
1005
431C
  0
DIMSTYLE
105
4DDC
330
42C1
100
AcDbSymbolTableRecord
100
AcDbDimStyleTableRecord
  2
英寸
 70
     0
  3
"
 41
15.0
 42
10.0
 43
3.75
 44
1.25
 73
     0
 74
     0
 77
     1
 78
     8
140
18.0
141
2.5
143
0.03937007874016
144
0.03937007874
147
3.0
171
     4
172
     1
176
     3
177
     3
178
     3
271
     3
272
     3
273
     7
274
     4
276
     2
277
     5
278
    44
283
     0
284
     8
340
469E
371
    13
372
    13
1001
ACAD_DSTYLE_DIMBREAK
1070
   391
1040
3.75
1001
ACAD_DSTYLE_DIMJAG
1070
   388
1040
1.5
1001
ACAD_DSTYLE_DIMTALN
1070
   392
1070
     0
1001
ACAD_DSTYLE_DIMEXT_LENGTH
1070
   378
1040
1.25
1001
ACAD_DSTYLE_DIMJOGGED_JOGANGLE_SYMBOL
1070
   384
1040
1.570796326794896
1001
ACAD_DSTYLE_DIM_LINETYPE
1070
   380
1005
431E
1001
ACAD_DSTYLE_DIM_EXT1_LINETYPE
1070
   381
1005
431E
1001
ACAD_DSTYLE_DIM_EXT2_LINETYPE
1070
   382
1005
431E
  0
DIMSTYLE
105
536B
330
42C1
100
AcDbSymbolTableRecord
100
AcDbDimStyleTableRecord
  2
XIAO
 70
     0
 41
2.0
 42
1.5
 43
1.0
 44
0.5
 73
     0
 74
     0
 77
     1
 78
     8
140
2.0
141
1.0
143
0.03937007874016
147
0.8
171
     3
172
     1
179
     1
271
     1
272
     1
274
     3
278
    44
283
     0
284
     8
340
4317
  0
DIMSTYLE
105
536C
330
42C1
100
AcDbSymbolTableRecord
100
AcDbDimStyleTableRecord
  2
副本 (3)Standard
 70
     0
  4
"
 41
16.0
 42
22.0
 44
8.0
 73
     0
 74
     0
 78
     8
 79
     2
140
16.0
141
0.0
143
0.03937
147
5.0
171
     3
172
     1
175
     1
176
     3
177
     3
178
     3
179
     1
271
     1
272
     1
273
     7
274
     3
278
    44
289
     1
340
4317
344
5366
  0
DIMSTYLE
105
536D
330
42C1
100
AcDbSymbolTableRecord
100
AcDbDimStyleTableRecord
  2
100721
 70
     0
  4
"
 41
12.0
 42
18.0
 44
7.0
 73
     0
 74
     0
 78
     8
 79
     2
140
12.0
143
0.03937
147
5.0
171
     1
172
     1
176
   256
177
   256
178
   256
179
     1
271
     1
272
     1
274
     1
278
    44
340
4317
  0
DIMSTYLE
105
57C8
330
42C1
100
AcDbSymbolTableRecord
100
AcDbDimStyleTableRecord
  2
1
 70
     0
  3
"
 40
1.5
 41
10.0
 42
0.0
 43
3.75
 44
1.199999999999999
 73
     0
 74
     0
 77
     1
 78
     8
 79
     2
140
15.0
141
0.0
143
0.03937007874016
144
0.03937
147
1.5
171
     3
172
     1
176
     4
177
     4
178
     3
179
     1
271
     3
272
     3
274
     3
276
     2
277
     5
278
    44
283
     0
284
     8
340
4317
371
    -1
372
    -1
1001
ACAD_DSTYLE_DIMEXT_LENGTH
1070
   378
1040
3.0
1001
ACAD_DSTYLE_DIMJOGGED_JOGANGLE_SYMBOL
1070
   384
1040
1.570796326794896
  0
DIMSTYLE
105
57C9
330
42C1
100
AcDbSymbolTableRecord
100
AcDbDimStyleTableRecord
  2
inch
 70
     0
  3
"
  4
"
 41
15.0
 42
0.0
 43
3.75
 44
3.0
 73
     0
 74
     0
 78
     8
 79
     2
140
18.0
141
2.5
143
0.03937007874016
144
0.03937
147
4.0
171
     3
172
     1
176
     3
177
     3
178
     3
271
     3
272
     3
273
     7
274
     3
276
     2
277
     5
283
     0
284
     8
340
469E
371
     9
372
     9
1001
ACAD_DSTYLE_DIMBREAK
1070
   391
1040
0.125
1001
ACAD_DSTYLE_DIMJAG
1070
   388
1040
1.5
1001
ACAD_DSTYLE_DIMTALN
1070
   392
1070
     0
1001
ACAD_DSTYLE_DIMEXT_LENGTH
1070
   378
1040
3.0
1001
ACAD_DSTYLE_DIM_LINETYPE
1070
   380
1005
431E
1001
ACAD_DSTYLE_DIM_EXT1_LINETYPE
1070
   381
1005
431E
1001
ACAD_DSTYLE_DIM_EXT2_LINETYPE
1070
   382
1005
431E
  0
ENDTAB
  0
TABLE
  2
BLOCK_RECORD
  5
42B8
330
0
100
AcDbSymbolTable
 70
    72
  0
BLOCK_RECORD
  5
432D
102
{ACAD_XDICTIONARY
360
506A
102
}
330
42B8
100
AcDbSymbolTableRecord
100
AcDbBlockTableRecord
  2
*Model_Space
340
4330
  0
BLOCK_RECORD
  5
4329
330
42B8
100
AcDbSymbolTableRecord
100
AcDbBlockTableRecord
  2
*Paper_Space
340
432C
  0
BLOCK_RECORD
  5
440D
330
42B8
100
AcDbSymbolTableRecord
100
AcDbBlockTableRecord
  2
*D0
340
0
  0
BLOCK_RECORD
  5
440F
330
42B8
100
AcDbSymbolTableRecord
100
AcDbBlockTableRecord
  2
*U1
340
0
102
{BLKREFS
331
3497
102
}
  0
BLOCK_RECORD
  5
4415
330
42B8
100
AcDbSymbolTableRecord
100
AcDbBlockTableRecord
  2
*D2
340
0
  0
BLOCK_RECORD
  5
4417
330
42B8
100
AcDbSymbolTableRecord
100
AcDbBlockTableRecord
  2
*U3
340
0
102
{BLKREFS
331
381B
102
}
  0
BLOCK_RECORD
  5
4419
330
42B8
100
AcDbSymbolTableRecord
100
AcDbBlockTableRecord
  2
*D4
340
0
  0
BLOCK_RECORD
  5
441B
330
42B8
100
AcDbSymbolTableRecord
100
AcDbBlockTableRecord
  2
*U5
340
0
102
{BLKREFS
331
34C3
102
}
  0
BLOCK_RECORD
  5
441D
330
42B8
100
AcDbSymbolTableRecord
100
AcDbBlockTableRecord
  2
*D6
340
0
  0
BLOCK_RECORD
  5
441F
330
42B8
100
AcDbSymbolTableRecord
100
AcDbBlockTableRecord
  2
*U7
340
0
102
{BLKREFS
331
34CD
102
}
  0
BLOCK_RECORD
  5
4421
330
42B8
100
AcDbSymbolTableRecord
100
AcDbBlockTableRecord
  2
*D8
340
0
  0
BLOCK_RECORD
  5
4423
330
42B8
100
AcDbSymbolTableRecord
100
AcDbBlockTableRecord
  2
*U9
340
0
102
{BLKREFS
331
3807
102
}
  0
BLOCK_RECORD
  5
4425
330
42B8
100
AcDbSymbolTableRecord
100
AcDbBlockTableRecord
  2
*D10
340
0
  0
BLOCK_RECORD
  5
4427
330
42B8
100
AcDbSymbolTableRecord
100
AcDbBlockTableRecord
  2
*U11
340
0
102
{BLKREFS
331
382F
102
}
  0
BLOCK_RECORD
  5
4441
330
42B8
100
AcDbSymbolTableRecord
100
AcDbBlockTableRecord
  2
*D12
340
0
  0
BLOCK_RECORD
  5
4443
330
42B8
100
AcDbSymbolTableRecord
100
AcDbBlockTableRecord
  2
*U13
340
0
102
{BLKREFS
331
34B9
102
}
  0
BLOCK_RECORD
  5
4445
330
42B8
100
AcDbSymbolTableRecord
100
AcDbBlockTableRecord
  2
*D14
340
0
  0
BLOCK_RECORD
  5
4447
330
42B8
100
AcDbSymbolTableRecord
100
AcDbBlockTableRecord
  2
*U15
340
0
102
{BLKREFS
331
3576
102
}
  0
BLOCK_RECORD
  5
4451
330
42B8
100
AcDbSymbolTableRecord
100
AcDbBlockTableRecord
  2
*D16
340
0
  0
BLOCK_RECORD
  5
4453
330
42B8
100
AcDbSymbolTableRecord
100
AcDbBlockTableRecord
  2
*U17
340
0
102
{BLKREFS
331
3811
102
}
  0
BLOCK_RECORD
  5
445F
330
42B8
100
AcDbSymbolTableRecord
100
AcDbBlockTableRecord
  2
*U18
340
0
102
{BLKREFS
331
5B01
102
}
  0
BLOCK_RECORD
  5
4461
330
42B8
100
AcDbSymbolTableRecord
100
AcDbBlockTableRecord
  2
*U19
340
0
102
{BLKREFS
331
5B02
102
}
  0
BLOCK_RECORD
  5
4463
330
42B8
100
AcDbSymbolTableRecord
100
AcDbBlockTableRecord
  2
*U20
340
0
  0
BLOCK_RECORD
  5
4465
330
42B8
100
AcDbSymbolTableRecord
100
AcDbBlockTableRecord
  2
*U21
340
0
  0
BLOCK_RECORD
  5
4467
330
42B8
100
AcDbSymbolTableRecord
100
AcDbBlockTableRecord
  2
*U22
340
0
  0
BLOCK_RECORD
  5
4469
330
42B8
100
AcDbSymbolTableRecord
100
AcDbBlockTableRecord
  2
*U23
340
0
  0
BLOCK_RECORD
  5
446B
330
42B8
100
AcDbSymbolTableRecord
100
AcDbBlockTableRecord
  2
*U24
340
0
  0
BLOCK_RECORD
  5
446D
330
42B8
100
AcDbSymbolTableRecord
100
AcDbBlockTableRecord
  2
*U25
340
0
  0
BLOCK_RECORD
  5
4698
330
42B8
100
AcDbSymbolTableRecord
100
AcDbBlockTableRecord
  2
_Open30
340
0
  0
BLOCK_RECORD
  5
4847
330
42B8
100
AcDbSymbolTableRecord
100
AcDbBlockTableRecord
  2
*D27
340
0
  0
BLOCK_RECORD
  5
4855
330
42B8
100
AcDbSymbolTableRecord
100
AcDbBlockTableRecord
  2
*D28
340
0
  0
BLOCK_RECORD
  5
4863
330
42B8
100
AcDbSymbolTableRecord
100
AcDbBlockTableRecord
  2
*D29
340
0
  0
BLOCK_RECORD
  5
4871
330
42B8
100
AcDbSymbolTableRecord
100
AcDbBlockTableRecord
  2
*D30
340
0
  0
BLOCK_RECORD
  5
487F
330
42B8
100
AcDbSymbolTableRecord
100
AcDbBlockTableRecord
  2
*D31
340
0
  0
BLOCK_RECORD
  5
4B1D
330
42B8
100
AcDbSymbolTableRecord
100
AcDbBlockTableRecord
  2
GENAXEH
340
0
  0
BLOCK_RECORD
  5
4BBF
330
42B8
100
AcDbSymbolTableRecord
100
AcDbBlockTableRecord
  2
*D33
340
0
  0
BLOCK_RECORD
  5
4BCD
330
42B8
100
AcDbSymbolTableRecord
100
AcDbBlockTableRecord
  2
*D34
340
0
  0
BLOCK_RECORD
  5
4C22
330
42B8
100
AcDbSymbolTableRecord
100
AcDbBlockTableRecord
  2
*D35
340
0
  0
BLOCK_RECORD
  5
4C30
330
42B8
100
AcDbSymbolTableRecord
100
AcDbBlockTableRecord
  2
*D36
340
0
  0
BLOCK_RECORD
  5
4C3E
330
42B8
100
AcDbSymbolTableRecord
100
AcDbBlockTableRecord
  2
*D37
340
0
  0
BLOCK_RECORD
  5
4F2E
330
42B8
100
AcDbSymbolTableRecord
100
AcDbBlockTableRecord
  2
*D38
340
0
  0
BLOCK_RECORD
  5
4F3C
330
42B8
100
AcDbSymbolTableRecord
100
AcDbBlockTableRecord
  2
*D39
340
0
  0
BLOCK_RECORD
  5
4F4A
330
42B8
100
AcDbSymbolTableRecord
100
AcDbBlockTableRecord
  2
*D40
340
0
  0
BLOCK_RECORD
  5
5177
330
42B8
100
AcDbSymbolTableRecord
100
AcDbBlockTableRecord
  2
*D41
340
0
  0
BLOCK_RECORD
  5
5199
330
42B8
100
AcDbSymbolTableRecord
100
AcDbBlockTableRecord
  2
*D42
340
0
  0
BLOCK_RECORD
  5
51DB
330
42B8
100
AcDbSymbolTableRecord
100
AcDbBlockTableRecord
  2
*D43
340
0
  0
BLOCK_RECORD
  5
51E9
330
42B8
100
AcDbSymbolTableRecord
100
AcDbBlockTableRecord
  2
*D44
340
0
  0
BLOCK_RECORD
  5
51F7
330
42B8
100
AcDbSymbolTableRecord
100
AcDbBlockTableRecord
  2
*D45
340
0
  0
BLOCK_RECORD
  5
5205
330
42B8
100
AcDbSymbolTableRecord
100
AcDbBlockTableRecord
  2
*D46
340
0
  0
BLOCK_RECORD
  5
5366
330
42B8
100
AcDbSymbolTableRecord
100
AcDbBlockTableRecord
  2
_None
340
0
  0
BLOCK_RECORD
  5
551F
102
{ACAD_XDICTIONARY
360
5522
102
}
330
42B8
100
AcDbSymbolTableRecord
100
AcDbBlockTableRecord
  2
A$C2558637D
340
0
102
{BLKREFS
331
5BB8
331
5BBA
102
}
  0
BLOCK_RECORD
  5
5529
330
42B8
100
AcDbSymbolTableRecord
100
AcDbBlockTableRecord
  2
*D49
340
0
  0
BLOCK_RECORD
  5
5537
330
42B8
100
AcDbSymbolTableRecord
100
AcDbBlockTableRecord
  2
*D50
340
0
  0
BLOCK_RECORD
  5
5545
330
42B8
100
AcDbSymbolTableRecord
100
AcDbBlockTableRecord
  2
*D51
340
0
  0
BLOCK_RECORD
  5
5553
330
42B8
100
AcDbSymbolTableRecord
100
AcDbBlockTableRecord
  2
*D52
340
0
  0
BLOCK_RECORD
  5
55A9
330
42B8
100
AcDbSymbolTableRecord
100
AcDbBlockTableRecord
  2
*D53
340
0
  0
BLOCK_RECORD
  5
5758
330
42B8
100
AcDbSymbolTableRecord
100
AcDbBlockTableRecord
  2
*D54
340
0
  0
BLOCK_RECORD
  5
5766
330
42B8
100
AcDbSymbolTableRecord
100
AcDbBlockTableRecord
  2
*D55
340
0
  0
BLOCK_RECORD
  5
5774
330
42B8
100
AcDbSymbolTableRecord
100
AcDbBlockTableRecord
  2
*D56
340
0
  0
BLOCK_RECORD
  5
5782
330
42B8
100
AcDbSymbolTableRecord
100
AcDbBlockTableRecord
  2
*D57
340
0
  0
BLOCK_RECORD
  5
5790
330
42B8
100
AcDbSymbolTableRecord
100
AcDbBlockTableRecord
  2
*D58
340
0
  0
BLOCK_RECORD
  5
579E
330
42B8
100
AcDbSymbolTableRecord
100
AcDbBlockTableRecord
  2
*D59
340
0
  0
BLOCK_RECORD
  5
57AC
330
42B8
100
AcDbSymbolTableRecord
100
AcDbBlockTableRecord
  2
*D60
340
0
  0
BLOCK_RECORD
  5
57BA
330
42B8
100
AcDbSymbolTableRecord
100
AcDbBlockTableRecord
  2
*D61
340
0
  0
BLOCK_RECORD
  5
59F4
330
42B8
100
AcDbSymbolTableRecord
100
AcDbBlockTableRecord
  2
*D62
340
0
  0
BLOCK_RECORD
  5
5A02
330
42B8
100
AcDbSymbolTableRecord
100
AcDbBlockTableRecord
  2
*D63
340
0
  0
BLOCK_RECORD
  5
5A10
330
42B8
100
AcDbSymbolTableRecord
100
AcDbBlockTableRecord
  2
*D64
340
0
  0
BLOCK_RECORD
  5
5A1E
330
42B8
100
AcDbSymbolTableRecord
100
AcDbBlockTableRecord
  2
*D65
340
0
  0
BLOCK_RECORD
  5
5A2C
330
42B8
100
AcDbSymbolTableRecord
100
AcDbBlockTableRecord
  2
*D66
340
0
  0
BLOCK_RECORD
  5
5A3A
330
42B8
100
AcDbSymbolTableRecord
100
AcDbBlockTableRecord
  2
*D67
340
0
  0
BLOCK_RECORD
  5
5A48
330
42B8
100
AcDbSymbolTableRecord
100
AcDbBlockTableRecord
  2
*D68
340
0
  0
BLOCK_RECORD
  5
5A56
330
42B8
100
AcDbSymbolTableRecord
100
AcDbBlockTableRecord
  2
*D69
340
0
  0
BLOCK_RECORD
  5
5B35
330
42B8
100
AcDbSymbolTableRecord
100
AcDbBlockTableRecord
  2
*D70
340
0
  0
ENDTAB
  0
ENDSEC
  0
SECTION
  2
BLOCKS
  0
BLOCK
  5
432E
330
432D
100
AcDbEntity
  8
0
100
AcDbBlockBegin
  2
*Model_Space
 70
     0
 10
0.0
 20
0.0
 30
0.0
  3
*Model_Space
  1

  0
ENDBLK
  5
432F
330
432D
100
AcDbEntity
  8
0
100
AcDbBlockEnd
  0
BLOCK
  5
432A
330
4329
100
AcDbEntity
 67
     1
  8
0
100
AcDbBlockBegin
  2
*Paper_Space
 70
     0
 10
0.0
 20
0.0
 30
0.0
  3
*Paper_Space
  1

  0
ENDBLK
  5
432B
330
4329
100
AcDbEntity
 67
     1
  8
0
100
AcDbBlockEnd
  0
BLOCK
  5
440E
330
440D
100
AcDbEntity
  8
0
100
AcDbBlockBegin
  2
*D0
 70
     1
 10
0.0
 20
0.0
 30
0.0
  3
*D0
  1

  0
LINE
  5
3491
330
440D
100
AcDbEntity
  8
标注
  6
ByBlock
100
AcDbLine
 10
453.6164645460622
 20
161.054463058452
 30
0.0
 11
453.6164645460622
 21
152.1541856005704
 31
0.0
  0
LINE
  5
3492
330
440D
100
AcDbEntity
  8
标注
  6
ByBlock
100
AcDbLine
 10
463.616464546022
 20
161.054463058452
 30
0.0
 11
463.616464546022
 21
152.1541856005704
 31
0.0
  0
LINE
  5
3493
330
440D
100
AcDbEntity
  8
标注
  6
ByBlock
100
AcDbLine
 10
454.2664645460621
 20
152.4741856005704
 30
0.0
 11
457.8206312127088
 21
152.4741856005704
 31
0.0
  0
LINE
  5
3494
330
440D
100
AcDbEntity
  8
标注
  6
ByBlock
100
AcDbLine
 10
462.9664645460223
 20
152.4741856005704
 30
0.0
 11
459.4122978793754
 21
152.4741856005704
 31
0.0
  0
SOLID
  5
3495
330
440D
100
AcDbEntity
  8
标注
100
AcDbTrace
 10
454.2664645460621
 20
152.5825189339037
 30
0.0
 11
454.2664645460621
 21
152.3658522672371
 31
0.0
 12
453.6164645460622
 22
152.4741856005704
 32
0.0
 13
453.6164645460622
 23
152.4741856005704
 33
0.0
  0
SOLID
  5
3496
330
440D
100
AcDbEntity
  8
标注
100
AcDbTrace
 10
462.9664645460223
 20
152.5825189339037
 30
0.0
 11
462.9664645460223
 21
152.3658522672371
 31
0.0
 12
463.616464546022
 22
152.4741856005704
 32
0.0
 13
463.616464546022
 23
152.4741856005704
 33
0.0
  0
INSERT
  5
3497
330
440D
100
AcDbEntity
  8
0
100
AcDbBlockReference
  2
*U1
 10
0.0
 20
0.0
 30
0.0
  0
POINT
  5
3498
330
440D
100
AcDbEntity
  8
DEFPOINTS
 62
     0
100
AcDbPoint
 10
453.6164645460622
 20
161.934463058452
 30
0.0
  0
POINT
  5
3499
330
440D
100
AcDbEntity
  8
DEFPOINTS
 62
     0
100
AcDbPoint
 10
463.616464546022
 20
161.934463058452
 30
0.0
  0
POINT
  5
349A
330
440D
100
AcDbEntity
  8
DEFPOINTS
 62
     0
100
AcDbPoint
 10
463.616464546022
 20
152.4741856005704
 30
0.0
  0
ENDBLK
  5
33E8
330
440D
100
AcDbEntity
  8
0
100
AcDbBlockEnd
  0
BLOCK
  5
4410
330
440F
100
AcDbEntity
  8
0
100
AcDbBlockBegin
  2
*U1
 70
     1
 10
0.0
 20
0.0
 30
0.0
  3
*U1
  1

  0
TEXT
  5
3F06
330
440F
100
AcDbEntity
  8
标注
100
AcDbText
 10
458.0206312127088
 20
152.1491856005704
 30
0.0
 40
0.65
  1
10"
100
AcDbText
  0
ENDBLK
  5
3F08
330
440F
100
AcDbEntity
  8
0
100
AcDbBlockEnd
  0
BLOCK
  5
4416
330
4415
100
AcDbEntity
  8
0
100
AcDbBlockBegin
  2
*D2
 70
     1
 10
0.0
 20
0.0
 30
0.0
  3
*D2
  1

  0
LINE
  5
3815
330
4415
100
AcDbEntity
  8
标注
  6
ByBlock
100
AcDbLine
 10
452.3943545009451
 20
161.7240958431686
 30
0.0
 11
452.3943545009451
 21
152.1541856005704
 31
0.0
  0
LINE
  5
3816
330
4415
100
AcDbEntity
  8
标注
  6
ByBlock
100
AcDbLine
 10
438.5770944673701
 20
162.1174551844199
 30
0.0
 11
438.5770944673701
 21
152.1541856005704
 31
0.0
  0
LINE
  5
3817
330
4415
100
AcDbEntity
  8
标注
  6
ByBlock
100
AcDbLine
 10
451.7443545009451
 20
152.4741856005704
 30
0.0
 11
447.6357244841577
 21
152.4741856005704
 31
0.0
  0
LINE
  5
3818
330
4415
100
AcDbEntity
  8
标注
  6
ByBlock
100
AcDbLine
 10
439.2270944673703
 20
152.4741856005704
 30
0.0
 11
443.3357244841577
 21
152.4741856005704
 31
0.0
  0
SOLID
  5
3819
330
4415
100
AcDbEntity
  8
标注
100
AcDbTrace
 10
451.7443545009451
 20
152.5825189339037
 30
0.0
 11
451.7443545009451
 21
152.3658522672371
 31
0.0
 12
452.3943545009451
 22
152.4741856005704
 32
0.0
 13
452.3943545009451
 23
152.4741856005704
 33
0.0
  0
SOLID
  5
381A
330
4415
100
AcDbEntity
  8
标注
100
AcDbTrace
 10
439.2270944673703
 20
152.5825189339037
 30
0.0
 11
439.2270944673703
 21
152.3658522672371
 31
0.0
 12
438.5770944673701
 22
152.4741856005704
 32
0.0
 13
438.5770944673701
 23
152.4741856005704
 33
0.0
  0
INSERT
  5
381B
330
4415
100
AcDbEntity
  8
0
100
AcDbBlockReference
  2
*U3
 10
0.0
 20
0.0
 30
0.0
  0
POINT
  5
381C
330
4415
100
AcDbEntity
  8
DEFPOINTS
 62
     0
100
AcDbPoint
 10
452.3943545009451
 20
162.6040958431686
 30
0.0
  0
POINT
  5
381D
330
4415
100
AcDbEntity
  8
DEFPOINTS
 62
     0
100
AcDbPoint
 10
438.5770944673701
 20
162.9974551844199
 30
0.0
  0
POINT
  5
381E
330
4415
100
AcDbEntity
  8
DEFPOINTS
 62
     0
100
AcDbPoint
 10
438.5770944673701
 20
152.4741856005704
 30
0.0
  0
ENDBLK
  5
3403
330
4415
100
AcDbEntity
  8
0
100
AcDbBlockEnd
  0
BLOCK
  5
4418
330
4417
100
AcDbEntity
  8
0
100
AcDbBlockBegin
  2
*U3
 70
     1
 10
0.0
 20
0.0
 30
0.0
  3
*U3
  1

  0
TEXT
  5
3F59
330
4417
100
AcDbEntity
  8
标注
100
AcDbText
 10
443.5357244841577
 20
152.1491856005704
 30
0.0
 40
0.65
  1
13 3/4"
100
AcDbText
  0
ENDBLK
  5
3F5B
330
4417
100
AcDbEntity
  8
0
100
AcDbBlockEnd
  0
BLOCK
  5
441A
330
4419
100
AcDbEntity
  8
0
100
AcDbBlockBegin
  2
*D4
 70
     1
 10
0.0
 20
0.0
 30
0.0
  3
*D4
  1

  0
LINE
  5
34BD
330
4419
100
AcDbEntity
  8
标注
  6
ByBlock
100
AcDbLine
 10
459.4964645459021
 20
154.9659591214723
 30
0.0
 11
466.0764453192927
 21
154.9659591214723
 31
0.0
  0
LINE
  5
34BE
330
4419
100
AcDbEntity
  8
标注
  6
ByBlock
100
AcDbLine
 10
459.4964645463058
 20
168.9817071529096
 30
0.0
 11
466.0764453192927
 21
168.9817071529096
 31
0.0
  0
LINE
  5
34BF
330
4419
100
AcDbEntity
  8
标注
  6
ByBlock
100
AcDbLine
 10
465.7564453192925
 20
155.6159591214723
 30
0.0
 11
465.7564453192925
 21
161.1238331371909
 31
0.0
  0
LINE
  5
34C0
330
4419
100
AcDbEntity
  8
标注
  6
ByBlock
100
AcDbLine
 10
465.7564453192925
 20
168.3317071529097
 30
0.0
 11
465.7564453192925
 21
162.8238331371909
 31
0.0
  0
SOLID
  5
34C1
330
4419
100
AcDbEntity
  8
标注
100
AcDbTrace
 10
465.6481119859591
 20
155.6159591214723
 30
0.0
 11
465.864778652626
 21
155.6159591214723
 31
0.0
 12
465.7564453192925
 22
154.9659591214723
 32
0.0
 13
465.7564453192925
 23
154.9659591214723
 33
0.0
  0
SOLID
  5
34C2
330
4419
100
AcDbEntity
  8
标注
100
AcDbTrace
 10
465.6481119859591
 20
168.3317071529097
 30
0.0
 11
465.864778652626
 21
168.3317071529097
 31
0.0
 12
465.7564453192925
 22
168.9817071529096
 32
0.0
 13
465.7564453192925
 23
168.9817071529096
 33
0.0
  0
INSERT
  5
34C3
330
4419
100
AcDbEntity
  8
0
100
AcDbBlockReference
  2
*U5
 10
0.0
 20
0.0
 30
0.0
  0
POINT
  5
34C4
330
4419
100
AcDbEntity
  8
DEFPOINTS
 62
     0
100
AcDbPoint
 10
458.616464545902
 20
154.9659591214723
 30
0.0
  0
POINT
  5
34C5
330
4419
100
AcDbEntity
  8
DEFPOINTS
 62
     0
100
AcDbPoint
 10
458.6164645463058
 20
168.9817071529096
 30
0.0
  0
POINT
  5
34C6
330
4419
100
AcDbEntity
  8
DEFPOINTS
 62
     0
100
AcDbPoint
 10
465.7564453192925
 20
168.9817071529096
 30
0.0
  0
ENDBLK
  5
3410
330
4419
100
AcDbEntity
  8
0
100
AcDbBlockEnd
  0
BLOCK
  5
441C
330
441B
100
AcDbEntity
  8
0
100
AcDbBlockBegin
  2
*U5
 70
     1
 10
0.0
 20
0.0
 30
0.0
  3
*U5
  1

  0
TEXT
  5
3F12
330
441B
100
AcDbEntity
  8
标注
100
AcDbText
 10
466.0814453192925
 20
161.323833137191
 30
0.0
 40
0.65
  1
14"
 50
90.0
100
AcDbText
  0
ENDBLK
  5
3F14
330
441B
100
AcDbEntity
  8
0
100
AcDbBlockEnd
  0
BLOCK
  5
441E
330
441D
100
AcDbEntity
  8
0
100
AcDbBlockBegin
  2
*D6
 70
     1
 10
0.0
 20
0.0
 30
0.0
  3
*D6
  1

  0
LINE
  5
34C7
330
441D
100
AcDbEntity
  8
标注
100
AcDbLine
 10
465.4964645460185
 20
187.983917000921
 30
0.0
 11
465.581994229596
 21
187.983917000921
 31
0.0
  0
LINE
  5
34C8
330
441D
100
AcDbEntity
  8
标注
100
AcDbLine
 10
461.3742354899967
 20
180.9760429852023
 30
0.0
 11
465.581994229596
 21
180.9760429852023
 31
0.0
  0
LINE
  5
34C9
330
441D
100
AcDbEntity
  8
标注
100
AcDbLine
 10
465.261994229596
 20
187.333917000921
 30
0.0
 11
465.261994229596
 21
185.1133133263949
 31
0.0
  0
LINE
  5
34CA
330
441D
100
AcDbEntity
  8
标注
100
AcDbLine
 10
465.261994229596
 20
181.6260429852023
 30
0.0
 11
465.261994229596
 21
183.8466466597282
 31
0.0
  0
SOLID
  5
34CB
330
441D
100
AcDbEntity
  8
标注
100
AcDbTrace
 10
465.1536608962626
 20
187.333917000921
 30
0.0
 11
465.3703275629291
 21
187.333917000921
 31
0.0
 12
465.261994229596
 22
187.983917000921
 32
0.0
 13
465.261994229596
 23
187.983917000921
 33
0.0
  0
SOLID
  5
34CC
330
441D
100
AcDbEntity
  8
标注
100
AcDbTrace
 10
465.1536608962626
 20
181.6260429852023
 30
0.0
 11
465.3703275629291
 21
181.6260429852023
 31
0.0
 12
465.261994229596
 22
180.9760429852023
 32
0.0
 13
465.261994229596
 23
180.9760429852023
 33
0.0
  0
INSERT
  5
34CD
330
441D
100
AcDbEntity
  8
0
100
AcDbBlockReference
  2
*U7
 10
0.0
 20
0.0
 30
0.0
  0
POINT
  5
34CE
330
441D
100
AcDbEntity
  8
DEFPOINTS
 62
     0
100
AcDbPoint
 10
464.6164645460185
 20
187.983917000921
 30
0.0
  0
POINT
  5
34CF
330
441D
100
AcDbEntity
  8
DEFPOINTS
 62
     0
100
AcDbPoint
 10
460.4942354899967
 20
180.9760429852023
 30
0.0
  0
POINT
  5
34D0
330
441D
100
AcDbEntity
  8
DEFPOINTS
 62
     0
100
AcDbPoint
 10
465.261994229596
 20
180.9760429852023
 30
0.0
  0
ENDBLK
  5
341D
330
441D
100
AcDbEntity
  8
0
100
AcDbBlockEnd
  0
BLOCK
  5
4420
330
441F
100
AcDbEntity
  8
0
100
AcDbBlockBegin
  2
*U7
 70
     1
 10
0.0
 20
0.0
 30
0.0
  3
*U7
  1

  0
TEXT
  5
3F16
330
441F
100
AcDbEntity
  8
标注
100
AcDbText
 10
465.5869942295957
 20
184.0466466597283
 30
0.0
 40
0.65
  1
7"
 50
90.0
100
AcDbText
  0
ENDBLK
  5
3F18
330
441F
100
AcDbEntity
  8
0
100
AcDbBlockEnd
  0
BLOCK
  5
4422
330
4421
100
AcDbEntity
  8
0
100
AcDbBlockBegin
  2
*D8
 70
     1
 10
0.0
 20
0.0
 30
0.0
  3
*D8
  1

  0
LINE
  5
3801
330
4421
100
AcDbEntity
  8
标注
  6
ByBlock
100
AcDbLine
 10
437.4944173020221
 20
157.8103685702701
 30
0.0
 11
437.4944173020221
 21
150.712346408988
 31
0.0
  0
LINE
  5
3802
330
4421
100
AcDbEntity
  8
标注
  6
ByBlock
100
AcDbLine
 10
464.6597716326312
 20
157.8103685702701
 30
0.0
 11
464.6597716326312
 21
150.712346408988
 31
0.0
  0
LINE
  5
3803
330
4421
100
AcDbEntity
  8
标注
  6
ByBlock
100
AcDbLine
 10
438.144417302022
 20
151.032346408988
 30
0.0
 11
448.9270944673266
 21
151.032346408988
 31
0.0
  0
LINE
  5
3804
330
4421
100
AcDbEntity
  8
标注
  6
ByBlock
100
AcDbLine
 10
464.0097716326311
 20
151.032346408988
 30
0.0
 11
453.2270944673268
 21
151.032346408988
 31
0.0
  0
SOLID
  5
3805
330
4421
100
AcDbEntity
  8
标注
100
AcDbTrace
 10
438.144417302022
 20
151.1406797423213
 30
0.0
 11
438.144417302022
 21
150.9240130756547
 31
0.0
 12
437.4944173020221
 22
151.032346408988
 32
0.0
 13
437.4944173020221
 23
151.032346408988
 33
0.0
  0
SOLID
  5
3806
330
4421
100
AcDbEntity
  8
标注
100
AcDbTrace
 10
464.0097716326311
 20
151.1406797423213
 30
0.0
 11
464.0097716326311
 21
150.9240130756547
 31
0.0
 12
464.6597716326312
 22
151.032346408988
 32
0.0
 13
464.6597716326312
 23
151.032346408988
 33
0.0
  0
INSERT
  5
3807
330
4421
100
AcDbEntity
  8
0
100
AcDbBlockReference
  2
*U9
 10
0.0
 20
0.0
 30
0.0
  0
POINT
  5
3808
330
4421
100
AcDbEntity
  8
DEFPOINTS
 62
     0
100
AcDbPoint
 10
437.4944173020221
 20
158.6903685702701
 30
0.0
  0
POINT
  5
3809
330
4421
100
AcDbEntity
  8
DEFPOINTS
 62
     0
100
AcDbPoint
 10
464.6597716326312
 20
158.6903685702701
 30
0.0
  0
POINT
  5
380A
330
4421
100
AcDbEntity
  8
DEFPOINTS
 62
     0
100
AcDbPoint
 10
464.6597716326312
 20
151.032346408988
 30
0.0
  0
ENDBLK
  5
342A
330
4421
100
AcDbEntity
  8
0
100
AcDbBlockEnd
  0
BLOCK
  5
4424
330
4423
100
AcDbEntity
  8
0
100
AcDbBlockBegin
  2
*U9
 70
     1
 10
0.0
 20
0.0
 30
0.0
  3
*U9
  1

  0
TEXT
  5
3F51
330
4423
100
AcDbEntity
  8
标注
100
AcDbText
 10
449.1270944673265
 20
150.707346408988
 30
0.0
 40
0.65
  1
27 1/8"
100
AcDbText
  0
ENDBLK
  5
3F53
330
4423
100
AcDbEntity
  8
0
100
AcDbBlockEnd
  0
BLOCK
  5
4426
330
4425
100
AcDbEntity
  8
0
100
AcDbBlockBegin
  2
*D10
 70
     1
 10
0.0
 20
0.0
 30
0.0
  3
*D10
  1

  0
LINE
  5
3829
330
4425
100
AcDbEntity
  8
标注
  6
ByBlock
100
AcDbLine
 10
460.7720550972167
 20
153.7848567592729
 30
0.0
 11
467.4400858694927
 21
153.7848567592729
 31
0.0
  0
LINE
  5
382A
330
4425
100
AcDbEntity
  8
标注
  6
ByBlock
100
AcDbLine
 10
460.6342598216303
 20
170.0446992788921
 30
0.0
 11
467.4400858694927
 21
170.0446992788921
 31
0.0
  0
LINE
  5
382B
330
4425
100
AcDbEntity
  8
标注
  6
ByBlock
100
AcDbLine
 10
467.1200858694929
 20
154.4348567592729
 30
0.0
 11
467.1200858694929
 21
159.8731113524157
 31
0.0
  0
LINE
  5
382C
330
4425
100
AcDbEntity
  8
标注
  6
ByBlock
100
AcDbLine
 10
467.1200858694929
 20
169.3946992788921
 30
0.0
 11
467.1200858694929
 21
163.9564446857491
 31
0.0
  0
SOLID
  5
382D
330
4425
100
AcDbEntity
  8
标注
100
AcDbTrace
 10
467.0117525361596
 20
154.4348567592729
 30
0.0
 11
467.2284192028262
 21
154.4348567592729
 31
0.0
 12
467.1200858694929
 22
153.7848567592729
 32
0.0
 13
467.1200858694929
 23
153.7848567592729
 33
0.0
  0
SOLID
  5
382E
330
4425
100
AcDbEntity
  8
标注
100
AcDbTrace
 10
467.0117525361596
 20
169.3946992788921
 30
0.0
 11
467.2284192028262
 21
169.3946992788921
 31
0.0
 12
467.1200858694929
 22
170.0446992788921
 32
0.0
 13
467.1200858694929
 23
170.0446992788921
 33
0.0
  0
INSERT
  5
382F
330
4425
100
AcDbEntity
  8
0
100
AcDbBlockReference
  2
*U11
 10
0.0
 20
0.0
 30
0.0
  0
POINT
  5
3830
330
4425
100
AcDbEntity
  8
DEFPOINTS
 62
     0
100
AcDbPoint
 10
459.892055097217
 20
153.7848567592729
 30
0.0
  0
POINT
  5
3831
330
4425
100
AcDbEntity
  8
DEFPOINTS
 62
     0
100
AcDbPoint
 10
459.7542598216303
 20
170.0446992788921
 30
0.0
  0
POINT
  5
3832
330
4425
100
AcDbEntity
  8
DEFPOINTS
 62
     0
100
AcDbPoint
 10
467.1200858694929
 20
170.0446992788921
 30
0.0
  0
ENDBLK
  5
3437
330
4425
100
AcDbEntity
  8
0
100
AcDbBlockEnd
  0
BLOCK
  5
4428
330
4427
100
AcDbEntity
  8
0
100
AcDbBlockBegin
  2
*U11
 70
     1
 10
0.0
 20
0.0
 30
0.0
  3
*U11
  1

  0
TEXT
  5
3F5D
330
4427
100
AcDbEntity
  8
标注
100
AcDbText
 10
467.4450858694927
 20
160.0731113524158
 30
0.0
 40
0.65
  1
16 1/4"
 50
90.0
100
AcDbText
  0
ENDBLK
  5
3F5F
330
4427
100
AcDbEntity
  8
0
100
AcDbBlockEnd
  0
BLOCK
  5
4442
330
4441
100
AcDbEntity
  8
0
100
AcDbBlockBegin
  2
*D12
 70
     1
 10
0.0
 20
0.0
 30
0.0
  3
*D12
  1

  0
LINE
  5
34B3
330
4441
100
AcDbEntity
  8
标注
  6
ByBlock
100
AcDbLine
 10
444.6065432862452
 20
154.9659591214723
 30
0.0
 11
435.7018696967847
 21
154.9659591214723
 31
0.0
  0
LINE
  5
34B4
330
4441
100
AcDbEntity
  8
标注
  6
ByBlock
100
AcDbLine
 10
444.6065432862452
 20
171.028951247382
 30
0.0
 11
435.7018696967847
 21
171.028951247382
 31
0.0
  0
LINE
  5
34B5
330
4441
100
AcDbEntity
  8
标注
  6
ByBlock
100
AcDbLine
 10
436.0218696967849
 20
155.6159591214723
 30
0.0
 11
436.0218696967849
 21
160.9557885177677
 31
0.0
  0
LINE
  5
34B6
330
4441
100
AcDbEntity
  8
标注
  6
ByBlock
100
AcDbLine
 10
436.0218696967849
 20
170.378951247382
 30
0.0
 11
436.0218696967849
 21
165.039121851101
 31
0.0
  0
SOLID
  5
34B7
330
4441
100
AcDbEntity
  8
标注
100
AcDbTrace
 10
435.9135363634516
 20
155.6159591214723
 30
0.0
 11
436.1302030301184
 21
155.6159591214723
 31
0.0
 12
436.0218696967849
 22
154.9659591214723
 32
0.0
 13
436.0218696967849
 23
154.9659591214723
 33
0.0
  0
SOLID
  5
34B8
330
4441
100
AcDbEntity
  8
标注
100
AcDbTrace
 10
435.9135363634516
 20
170.378951247382
 30
0.0
 11
436.1302030301184
 21
170.378951247382
 31
0.0
 12
436.0218696967849
 22
171.028951247382
 32
0.0
 13
436.0218696967849
 23
171.028951247382
 33
0.0
  0
INSERT
  5
34B9
330
4441
100
AcDbEntity
  8
0
100
AcDbBlockReference
  2
*U13
 10
0.0
 20
0.0
 30
0.0
  0
POINT
  5
34BA
330
4441
100
AcDbEntity
  8
DEFPOINTS
 62
     0
100
AcDbPoint
 10
445.4865432862452
 20
154.9659591214723
 30
0.0
  0
POINT
  5
34BB
330
4441
100
AcDbEntity
  8
DEFPOINTS
 62
     0
100
AcDbPoint
 10
445.4865432862452
 20
171.028951247382
 30
0.0
  0
POINT
  5
34BC
330
4441
100
AcDbEntity
  8
DEFPOINTS
 62
     0
100
AcDbPoint
 10
436.0218696967849
 20
171.028951247382
 30
0.0
  0
ENDBLK
  5
34B2
330
4441
100
AcDbEntity
  8
0
100
AcDbBlockEnd
  0
BLOCK
  5
4444
330
4443
100
AcDbEntity
  8
0
100
AcDbBlockBegin
  2
*U13
 70
     1
 10
0.0
 20
0.0
 30
0.0
  3
*U13
  1

  0
TEXT
  5
3F0E
330
4443
100
AcDbEntity
  8
标注
100
AcDbText
 10
436.3468696967848
 20
161.1557885177677
 30
0.0
 40
0.65
  1
16 1/8"
 50
90.0
100
AcDbText
  0
ENDBLK
  5
3F10
330
4443
100
AcDbEntity
  8
0
100
AcDbBlockEnd
  0
BLOCK
  5
4446
330
4445
100
AcDbEntity
  8
0
100
AcDbBlockBegin
  2
*D14
 70
     1
 10
0.0
 20
0.0
 30
0.0
  3
*D14
  1

  0
LINE
  5
3570
330
4445
100
AcDbEntity
  8
标注
100
AcDbLine
 10
442.2812503129256
 20
179.9933406007001
 30
0.0
 11
436.0088189754862
 21
179.9933406007001
 31
0.0
  0
LINE
  5
3571
330
4445
100
AcDbEntity
  8
标注
100
AcDbLine
 10
436.657724385966
 20
187.9839170010344
 30
0.0
 11
436.0088189754862
 21
187.9839170010344
 31
0.0
  0
LINE
  5
3572
330
4445
100
AcDbEntity
  8
标注
100
AcDbLine
 10
436.3288189754864
 20
180.6433406007001
 30
0.0
 11
436.3288189754864
 21
183.3552954675338
 31
0.0
  0
LINE
  5
3573
330
4445
100
AcDbEntity
  8
标注
100
AcDbLine
 10
436.3288189754864
 20
187.3339170010343
 30
0.0
 11
436.3288189754864
 21
184.6219621342005
 31
0.0
  0
SOLID
  5
3574
330
4445
100
AcDbEntity
  8
标注
100
AcDbTrace
 10
436.2204856421526
 20
180.6433406007001
 30
0.0
 11
436.4371523088196
 21
180.6433406007001
 31
0.0
 12
436.3288189754864
 22
179.9933406007001
 32
0.0
 13
436.3288189754864
 23
179.9933406007001
 33
0.0
  0
SOLID
  5
3575
330
4445
100
AcDbEntity
  8
标注
100
AcDbTrace
 10
436.2204856421526
 20
187.3339170010343
 30
0.0
 11
436.4371523088196
 21
187.3339170010343
 31
0.0
 12
436.3288189754864
 22
187.9839170010344
 32
0.0
 13
436.3288189754864
 23
187.9839170010344
 33
0.0
  0
INSERT
  5
3576
330
4445
100
AcDbEntity
  8
0
100
AcDbBlockReference
  2
*U15
 10
0.0
 20
0.0
 30
0.0
  0
POINT
  5
3577
330
4445
100
AcDbEntity
  8
DEFPOINTS
 62
     0
100
AcDbPoint
 10
443.1612503129257
 20
179.9933406007001
 30
0.0
  0
POINT
  5
3578
330
4445
100
AcDbEntity
  8
DEFPOINTS
 62
     0
100
AcDbPoint
 10
437.5377243859662
 20
187.9839170010344
 30
0.0
  0
POINT
  5
3579
330
4445
100
AcDbEntity
  8
DEFPOINTS
 62
     0
100
AcDbPoint
 10
436.3288189754864
 20
187.9839170010344
 30
0.0
  0
ENDBLK
  5
34D3
330
4445
100
AcDbEntity
  8
0
100
AcDbBlockEnd
  0
BLOCK
  5
4448
330
4447
100
AcDbEntity
  8
0
100
AcDbBlockBegin
  2
*U15
 70
     1
 10
0.0
 20
0.0
 30
0.0
  3
*U15
  1

  0
TEXT
  5
3F36
330
4447
100
AcDbEntity
  8
标注
100
AcDbText
 10
436.6538189754861
 20
183.5552954675339
 30
0.0
 40
0.65
  1
8"
 50
90.0
100
AcDbText
  0
ENDBLK
  5
3F38
330
4447
100
AcDbEntity
  8
0
100
AcDbBlockEnd
  0
BLOCK
  5
4452
330
4451
100
AcDbEntity
  8
0
100
AcDbBlockBegin
  2
*D16
 70
     1
 10
0.0
 20
0.0
 30
0.0
  3
*D16
  1

  0
LINE
  5
380B
330
4451
100
AcDbEntity
  8
标注
  6
ByBlock
100
AcDbLine
 10
441.5396141523959
 20
153.7848567592661
 30
0.0
 11
434.6236625535586
 21
153.7848567592661
 31
0.0
  0
LINE
  5
380C
330
4451
100
AcDbEntity
  8
标注
  6
ByBlock
100
AcDbLine
 10
441.5396141523959
 20
172.2100536095747
 30
0.0
 11
434.6236625535586
 21
172.2100536095747
 31
0.0
  0
LINE
  5
380D
330
4451
100
AcDbEntity
  8
标注
  6
ByBlock
100
AcDbLine
 10
434.9436625535591
 20
154.4348567592661
 30
0.0
 11
434.9436625535591
 21
160.955788517761
 31
0.0
  0
LINE
  5
380E
330
4451
100
AcDbEntity
  8
标注
  6
ByBlock
100
AcDbLine
 10
434.9436625535591
 20
171.5600536095747
 30
0.0
 11
434.9436625535591
 21
165.0391218510943
 31
0.0
  0
SOLID
  5
380F
330
4451
100
AcDbEntity
  8
标注
100
AcDbTrace
 10
434.8353292202256
 20
154.4348567592661
 30
0.0
 11
435.0519958868924
 21
154.4348567592661
 31
0.0
 12
434.9436625535591
 22
153.7848567592661
 32
0.0
 13
434.9436625535591
 23
153.7848567592661
 33
0.0
  0
SOLID
  5
3810
330
4451
100
AcDbEntity
  8
标注
100
AcDbTrace
 10
434.8353292202256
 20
171.5600536095747
 30
0.0
 11
435.0519958868924
 21
171.5600536095747
 31
0.0
 12
434.9436625535591
 22
172.2100536095747
 32
0.0
 13
434.9436625535591
 23
172.2100536095747
 33
0.0
  0
INSERT
  5
3811
330
4451
100
AcDbEntity
  8
0
100
AcDbBlockReference
  2
*U17
 10
0.0
 20
0.0
 30
0.0
  0
POINT
  5
3812
330
4451
100
AcDbEntity
  8
DEFPOINTS
 62
     0
100
AcDbPoint
 10
442.419614152396
 20
153.7848567592661
 30
0.0
  0
POINT
  5
3813
330
4451
100
AcDbEntity
  8
DEFPOINTS
 62
     0
100
AcDbPoint
 10
442.419614152396
 20
172.2100536095747
 30
0.0
  0
POINT
  5
3814
330
4451
100
AcDbEntity
  8
DEFPOINTS
 62
     0
100
AcDbPoint
 10
434.9436625535591
 20
172.2100536095747
 30
0.0
  0
ENDBLK
  5
3504
330
4451
100
AcDbEntity
  8
0
100
AcDbBlockEnd
  0
BLOCK
  5
4454
330
4453
100
AcDbEntity
  8
0
100
AcDbBlockBegin
  2
*U17
 70
     1
 10
0.0
 20
0.0
 30
0.0
  3
*U17
  1

  0
TEXT
  5
3F55
330
4453
100
AcDbEntity
  8
标注
100
AcDbText
 10
435.2686625535588
 20
161.155788517761
 30
0.0
 40
0.65
  1
18 1/2"
 50
90.0
100
AcDbText
  0
ENDBLK
  5
3F57
330
4453
100
AcDbEntity
  8
0
100
AcDbBlockEnd
  0
BLOCK
  5
4460
330
445F
100
AcDbEntity
  8
0
100
AcDbBlockBegin
  2
*U18
 70
     1
 10
0.0
 20
0.0
 30
0.0
  3
*U18
  1

  0
TEXT
  5
3F49
330
445F
100
AcDbEntity
  8
标注
100
AcDbText
 10
448.6543370278099
 20
176.5639646558375
 30
0.0
 40
0.7874015748031497
  1
FRONT VIEW
100
AcDbText
  0
ENDBLK
  5
3F4B
330
445F
100
AcDbEntity
  8
0
100
AcDbBlockEnd
  0
BLOCK
  5
4462
330
4461
100
AcDbEntity
  8
0
100
AcDbBlockBegin
  2
*U19
 70
     1
 10
0.0
 20
0.0
 30
0.0
  3
*U19
  1

  0
TEXT
  5
3F4D
330
4461
100
AcDbEntity
  8
标注
100
AcDbText
 10
446.9249478288684
 20
147.5695321124926
 30
0.0
 40
0.7874015748031497
  1
OVERHEAD VIEW
100
AcDbText
  0
ENDBLK
  5
3F4F
330
4461
100
AcDbEntity
  8
0
100
AcDbBlockEnd
  0
BLOCK
  5
4464
330
4463
100
AcDbEntity
  8
0
100
AcDbBlockBegin
  2
*U20
 70
     1
 10
0.0
 20
0.0
 30
0.0
  3
*U20
  1

  0
TEXT
  5
3F61
330
4463
100
AcDbEntity
  8
标注
100
AcDbText
 10
448.5331378829473
 20
102.4289209665645
 30
0.0
 40
0.7874015748031497
  1
1/4" 
100
AcDbText
  0
TEXT
  5
3F62
330
4463
100
AcDbEntity
  8
标注
100
AcDbText
 10
451.9452113737608
 20
102.4289209665645
 30
0.0
 40
0.7874015748031497
  1
OVERHANG CUTOUT
100
AcDbText
  0
ENDBLK
  5
3F64
330
4463
100
AcDbEntity
  8
0
100
AcDbBlockEnd
  0
BLOCK
  5
4466
330
4465
100
AcDbEntity
  8
0
100
AcDbBlockBegin
  2
*U21
 70
     1
 10
0.0
 20
0.0
 30
0.0
  3
*U21
  1

  0
TEXT
  5
3F66
330
4465
100
AcDbEntity
  8
标注
100
AcDbText
 10
448.4429035960663
 20
104.3974249035725
 30
0.0
 40
0.7874015748031497
  1
FLUSH CUTOUT
100
AcDbText
  0
ENDBLK
  5
3F68
330
4465
100
AcDbEntity
  8
0
100
AcDbBlockEnd
  0
BLOCK
  5
4468
330
4467
100
AcDbEntity
  8
0
100
AcDbBlockBegin
  2
*U22
 70
     1
 10
0.0
 20
0.0
 30
0.0
  3
*U22
  1

  0
TEXT
  5
3F6A
330
4467
100
AcDbEntity
  8
标注
100
AcDbText
 10
448.5331378829473
 20
106.3659288405804
 30
0.0
 40
0.7874015748031497
  1
1/4" 
100
AcDbText
  0
TEXT
  5
3F6B
330
4467
100
AcDbEntity
  8
标注
100
AcDbText
 10
451.9452113737608
 20
106.3659288405804
 30
0.0
 40
0.7874015748031497
  1
REVEAL CUTOUT
100
AcDbText
  0
ENDBLK
  5
3F6D
330
4467
100
AcDbEntity
  8
0
100
AcDbBlockEnd
  0
BLOCK
  5
446A
330
4469
100
AcDbEntity
  8
0
100
AcDbBlockBegin
  2
*U23
 70
     1
 10
0.0
 20
0.0
 30
0.0
  3
*U23
  1

  0
TEXT
  5
3F7E
330
4469
100
AcDbEntity
  8
标注
100
AcDbText
 10
448.5331378829473
 20
72.09550313691884
 30
0.0
 40
0.7874015748031497
  1
1/4" 
100
AcDbText
  0
TEXT
  5
3F7F
330
4469
100
AcDbEntity
  8
标注
100
AcDbText
 10
451.9452113737608
 20
72.09550313691884
 30
0.0
 40
0.7874015748031497
  1
REVEAL CUTOUT
100
AcDbText
  0
ENDBLK
  5
3F81
330
4469
100
AcDbEntity
  8
0
100
AcDbBlockEnd
  0
BLOCK
  5
446C
330
446B
100
AcDbEntity
  8
0
100
AcDbBlockBegin
  2
*U24
 70
     1
 10
0.0
 20
0.0
 30
0.0
  3
*U24
  1

  0
TEXT
  5
3F93
330
446B
100
AcDbEntity
  8
标注
100
AcDbText
 10
449.6014102680128
 20
38.98337568230097
 30
0.0
 40
0.7874015748031497
  1
FLUSH CUTOUT
100
AcDbText
  0
ENDBLK
  5
3F95
330
446B
100
AcDbEntity
  8
0
100
AcDbBlockEnd
  0
BLOCK
  5
446E
330
446D
100
AcDbEntity
  8
0
100
AcDbBlockBegin
  2
*U25
 70
     1
 10
0.0
 20
0.0
 30
0.0
  3
*U25
  1

  0
TEXT
  5
3FA6
330
446D
100
AcDbEntity
  8
标注
100
AcDbText
 10
448.5331378829473
 20
3.868212891439358
 30
0.0
 40
0.7874015748031497
  1
1/4" 
100
AcDbText
  0
TEXT
  5
3FA7
330
446D
100
AcDbEntity
  8
标注
100
AcDbText
 10
451.9452113737608
 20
3.868212891439358
 30
0.0
 40
0.7874015748031497
  1
OVERHANG CUTOUT
100
AcDbText
  0
ENDBLK
  5
3FA9
330
446D
100
AcDbEntity
  8
0
100
AcDbBlockEnd
  0
BLOCK
  5
4699
330
4698
100
AcDbEntity
  8
0
100
AcDbBlockBegin
  2
_Open30
 70
     0
 10
0.0
 20
0.0
 30
0.0
  3
_Open30
  1

  0
LINE
  5
469A
330
4698
100
AcDbEntity
  8
0
  6
ByBlock
 62
     0
370
    -2
100
AcDbLine
 10
-1.0
 20
0.26794919
 30
0.0
 11
0.0
 21
0.0
 31
0.0
  0
LINE
  5
469B
330
4698
100
AcDbEntity
  8
0
  6
ByBlock
 62
     0
370
    -2
100
AcDbLine
 10
0.0
 20
0.0
 30
0.0
 11
-1.0
 21
-0.26794919
 31
0.0
  0
LINE
  5
469C
330
4698
100
AcDbEntity
  8
0
  6
ByBlock
 62
     0
370
    -2
100
AcDbLine
 10
0.0
 20
0.0
 30
0.0
 11
-1.0
 21
0.0
 31
0.0
  0
ENDBLK
  5
469D
330
4698
100
AcDbEntity
  8
0
100
AcDbBlockEnd
  0
BLOCK
  5
4848
330
4847
100
AcDbEntity
  8
0
100
AcDbBlockBegin
  2
*D27
 70
     1
 10
0.0
 20
0.0
 30
0.0
  3
*D27
  1

  0
LINE
  5
4BDB
330
4847
100
AcDbEntity
  8
0
  6
Continuous
 62
     3
370
    13
100
AcDbLine
 10
515.1620209686101
 20
161.7751243604954
 30
0.0
 11
515.1620209686101
 21
151.2428654346278
 31
0.0
  0
LINE
  5
4BDC
330
4847
100
AcDbEntity
  8
0
  6
Continuous
 62
     3
370
    13
100
AcDbLine
 10
536.6186709686067
 20
161.7751243604954
 30
0.0
 11
536.6186709686067
 21
151.2428654346278
 31
0.0
  0
LINE
  5
4BDD
330
4847
100
AcDbEntity
  8
0
  6
Continuous
 62
     3
370
    13
100
AcDbLine
 10
515.8120209686101
 20
151.5628654346278
 30
0.0
 11
524.1339570797196
 21
151.5628654346278
 31
0.0
  0
LINE
  5
4BDE
330
4847
100
AcDbEntity
  8
0
  6
Continuous
 62
     3
370
    13
100
AcDbLine
 10
535.9686709686067
 20
151.5628654346278
 30
0.0
 11
527.6467348574973
 21
151.5628654346278
 31
0.0
  0
SOLID
  5
4BDF
330
4847
100
AcDbEntity
  8
0
 62
     3
100
AcDbTrace
 10
515.8120209686101
 20
151.6711987679611
 30
0.0
 11
515.8120209686101
 21
151.4545321012945
 31
0.0
 12
515.1620209686101
 22
151.5628654346278
 32
0.0
 13
515.1620209686101
 23
151.5628654346278
 33
0.0
  0
SOLID
  5
4BE0
330
4847
100
AcDbEntity
  8
0
 62
     3
100
AcDbTrace
 10
535.9686709686067
 20
151.6711987679611
 30
0.0
 11
535.9686709686067
 21
151.4545321012945
 31
0.0
 12
536.6186709686067
 22
151.5628654346278
 32
0.0
 13
536.6186709686067
 23
151.5628654346278
 33
0.0
  0
MTEXT
  5
4BE1
330
4847
100
AcDbEntity
  8
0
 62
     3
100
AcDbMText
 10
525.8903459686083
 20
151.5628654346278
 30
0.0
 40
0.65
 41
0.0
 71
     5
 72
     1
  1
\A1;21 1/2"
 73
     1
 44
1.0
1001
ACAD
1000
MTEXTBEGIN
1070
    73
1070
     1
1070
    44
1040
1.0
1070
    74
1070
     0
1000
MTEXTEND
  0
POINT
  5
4BE2
330
4847
100
AcDbEntity
  8
DEFPOINTS
 62
     0
100
AcDbPoint
 10
515.1620209686101
 20
162.6551243604954
 30
0.0
  0
POINT
  5
4BE3
330
4847
100
AcDbEntity
  8
DEFPOINTS
 62
     0
100
AcDbPoint
 10
536.6186709686067
 20
162.6551243604954
 30
0.0
  0
POINT
  5
4BE4
330
4847
100
AcDbEntity
  8
DEFPOINTS
 62
     0
100
AcDbPoint
 10
536.6186709686067
 20
151.5628654346278
 30
0.0
  0
ENDBLK
  5
4849
330
4847
100
AcDbEntity
  8
0
100
AcDbBlockEnd
  0
BLOCK
  5
4856
330
4855
100
AcDbEntity
  8
0
100
AcDbBlockBegin
  2
*D28
 70
     1
 10
0.0
 20
0.0
 30
0.0
  3
*D28
  1

  0
LINE
  5
4BE5
330
4855
100
AcDbEntity
  8
0
  6
Continuous
 62
     3
370
    13
100
AcDbLine
 10
514.1974559686101
 20
161.7751243604954
 30
0.0
 11
514.1974559686101
 21
149.5375210957591
 31
0.0
  0
LINE
  5
4BE6
330
4855
100
AcDbEntity
  8
0
  6
Continuous
 62
     3
370
    13
100
AcDbLine
 10
537.5832359686063
 20
161.7751243604954
 30
0.0
 11
537.5832359686063
 21
149.5375210957591
 31
0.0
  0
LINE
  5
4BE7
330
4855
100
AcDbEntity
  8
0
  6
Continuous
 62
     3
370
    13
100
AcDbLine
 10
514.8474559686101
 20
149.8575210957591
 30
0.0
 11
524.1339570797191
 21
149.8575210957591
 31
0.0
  0
LINE
  5
4BE8
330
4855
100
AcDbEntity
  8
0
  6
Continuous
 62
     3
370
    13
100
AcDbLine
 10
536.9332359686064
 20
149.8575210957591
 30
0.0
 11
527.646734857497
 21
149.8575210957591
 31
0.0
  0
SOLID
  5
4BE9
330
4855
100
AcDbEntity
  8
0
 62
     3
100
AcDbTrace
 10
514.8474559686101
 20
149.9658544290924
 30
0.0
 11
514.8474559686101
 21
149.7491877624258
 31
0.0
 12
514.1974559686101
 22
149.8575210957591
 32
0.0
 13
514.1974559686101
 23
149.8575210957591
 33
0.0
  0
SOLID
  5
4BEA
330
4855
100
AcDbEntity
  8
0
 62
     3
100
AcDbTrace
 10
536.9332359686064
 20
149.9658544290924
 30
0.0
 11
536.9332359686064
 21
149.7491877624258
 31
0.0
 12
537.5832359686063
 22
149.8575210957591
 32
0.0
 13
537.5832359686063
 23
149.8575210957591
 33
0.0
  0
MTEXT
  5
4BEB
330
4855
100
AcDbEntity
  8
0
 62
     3
100
AcDbMText
 10
525.8903459686081
 20
149.8575210957591
 30
0.0
 40
0.65
 41
0.0
 71
     5
 72
     1
  1
\A1;23 3/8"
 73
     1
 44
1.0
1001
ACAD
1000
MTEXTBEGIN
1070
    73
1070
     1
1070
    44
1040
1.0
1070
    74
1070
     0
1000
MTEXTEND
  0
POINT
  5
4BEC
330
4855
100
AcDbEntity
  8
DEFPOINTS
 62
     0
100
AcDbPoint
 10
514.1974559686101
 20
162.6551243604954
 30
0.0
  0
POINT
  5
4BED
330
4855
100
AcDbEntity
  8
DEFPOINTS
 62
     0
100
AcDbPoint
 10
537.5832359686063
 20
162.6551243604954
 30
0.0
  0
POINT
  5
4BEE
330
4855
100
AcDbEntity
  8
DEFPOINTS
 62
     0
100
AcDbPoint
 10
537.5832359686063
 20
149.8575210957591
 30
0.0
  0
ENDBLK
  5
4857
330
4855
100
AcDbEntity
  8
0
100
AcDbBlockEnd
  0
BLOCK
  5
4864
330
4863
100
AcDbEntity
  8
0
100
AcDbBlockBegin
  2
*D29
 70
     1
 10
0.0
 20
0.0
 30
0.0
  3
*D29
  1

  0
LINE
  5
4BEF
330
4863
100
AcDbEntity
  8
0
  6
Continuous
 62
     3
370
    13
100
AcDbLine
 10
526.7703459691722
 20
154.6826993605061
 30
0.0
 11
539.7498456205612
 21
154.6826993605061
 31
0.0
  0
LINE
  5
4BF0
330
4863
100
AcDbEntity
  8
0
  6
Continuous
 62
     3
370
    13
100
AcDbLine
 10
526.770345968612
 20
170.6275493604992
 30
0.0
 11
539.7498456205612
 21
170.6275493604992
 31
0.0
  0
LINE
  5
4BF1
330
4863
100
AcDbEntity
  8
0
  6
Continuous
 62
     3
370
    13
100
AcDbLine
 10
539.4298456205611
 20
155.3326993605061
 30
0.0
 11
539.4298456205611
 21
161.8520688049471
 31
0.0
  0
LINE
  5
4BF2
330
4863
100
AcDbEntity
  8
0
  6
Continuous
 62
     3
370
    13
100
AcDbLine
 10
539.4298456205611
 20
169.9775493604992
 30
0.0
 11
539.4298456205611
 21
163.4581799160582
 31
0.0
  0
SOLID
  5
4BF3
330
4863
100
AcDbEntity
  8
0
 62
     3
100
AcDbTrace
 10
539.3215122872277
 20
155.3326993605061
 30
0.0
 11
539.5381789538945
 21
155.3326993605061
 31
0.0
 12
539.4298456205611
 22
154.6826993605061
 32
0.0
 13
539.4298456205611
 23
154.6826993605061
 33
0.0
  0
SOLID
  5
4BF4
330
4863
100
AcDbEntity
  8
0
 62
     3
100
AcDbTrace
 10
539.3215122872277
 20
169.9775493604992
 30
0.0
 11
539.5381789538945
 21
169.9775493604992
 31
0.0
 12
539.4298456205611
 22
170.6275493604992
 32
0.0
 13
539.4298456205611
 23
170.6275493604992
 33
0.0
  0
MTEXT
  5
4BF5
330
4863
100
AcDbEntity
  8
0
 62
     3
100
AcDbMText
 10
539.4298456205611
 20
162.6551243605026
 30
0.0
 40
0.65
 41
0.0
 71
     5
 72
     1
  1
\A1;16"
 11
0.0000000000000001
 21
1.0
 31
0.0
 73
     1
 44
1.0
1001
ACAD
1000
MTEXTBEGIN
1070
    73
1070
     1
1070
    44
1040
1.0
1070
    74
1070
     0
1000
MTEXTEND
  0
POINT
  5
4BF6
330
4863
100
AcDbEntity
  8
DEFPOINTS
 62
     0
100
AcDbPoint
 10
525.8903459691722
 20
154.6826993605061
 30
0.0
  0
POINT
  5
4BF7
330
4863
100
AcDbEntity
  8
DEFPOINTS
 62
     0
100
AcDbPoint
 10
525.890345968612
 20
170.6275493604992
 30
0.0
  0
POINT
  5
4BF8
330
4863
100
AcDbEntity
  8
DEFPOINTS
 62
     0
100
AcDbPoint
 10
539.4298456205611
 20
170.6275493604992
 30
0.0
  0
ENDBLK
  5
4865
330
4863
100
AcDbEntity
  8
0
100
AcDbBlockEnd
  0
BLOCK
  5
4872
330
4871
100
AcDbEntity
  8
0
100
AcDbBlockBegin
  2
*D30
 70
     1
 10
0.0
 20
0.0
 30
0.0
  3
*D30
  1

  0
LINE
  5
4BF9
330
4871
100
AcDbEntity
  8
0
  6
Continuous
 62
     3
370
    13
100
AcDbLine
 10
526.7703459691722
 20
153.7575043605061
 30
0.0
 11
541.2693633406436
 21
153.7575043605061
 31
0.0
  0
LINE
  5
4BFA
330
4871
100
AcDbEntity
  8
0
  6
Continuous
 62
     3
370
    13
100
AcDbLine
 10
526.770345968612
 20
171.5527443604992
 30
0.0
 11
541.2693633406436
 21
171.5527443604992
 31
0.0
  0
LINE
  5
4BFB
330
4871
100
AcDbEntity
  8
0
  6
Continuous
 62
     3
370
    13
100
AcDbLine
 10
540.9493633406436
 20
154.4075043605061
 30
0.0
 11
540.9493633406436
 21
160.9276243605026
 31
0.0
  0
LINE
  5
4BFC
330
4871
100
AcDbEntity
  8
0
  6
Continuous
 62
     3
370
    13
100
AcDbLine
 10
540.9493633406436
 20
170.9027443604992
 30
0.0
 11
540.9493633406436
 21
164.3826243605025
 31
0.0
  0
SOLID
  5
4BFD
330
4871
100
AcDbEntity
  8
0
 62
     3
100
AcDbTrace
 10
540.8410300073102
 20
154.4075043605061
 30
0.0
 11
541.0576966739768
 21
154.4075043605061
 31
0.0
 12
540.9493633406436
 22
153.7575043605061
 32
0.0
 13
540.9493633406436
 23
153.7575043605061
 33
0.0
  0
SOLID
  5
4BFE
330
4871
100
AcDbEntity
  8
0
 62
     3
100
AcDbTrace
 10
540.8410300073102
 20
170.9027443604992
 30
0.0
 11
541.0576966739768
 21
170.9027443604992
 31
0.0
 12
540.9493633406436
 22
171.5527443604992
 32
0.0
 13
540.9493633406436
 23
171.5527443604992
 33
0.0
  0
MTEXT
  5
4BFF
330
4871
100
AcDbEntity
  8
0
 62
     3
100
AcDbMText
 10
540.9493633406436
 20
162.6551243605026
 30
0.0
 40
0.65
 41
0.0
 71
     5
 72
     1
  1
\A1;17 3/4"
 11
0.0000000000000001
 21
1.0
 31
0.0
 73
     1
 44
1.0
1001
ACAD
1000
MTEXTBEGIN
1070
    73
1070
     1
1070
    44
1040
1.0
1070
    74
1070
     0
1000
MTEXTEND
  0
POINT
  5
4C00
330
4871
100
AcDbEntity
  8
DEFPOINTS
 62
     0
100
AcDbPoint
 10
525.8903459691722
 20
153.7575043605061
 30
0.0
  0
POINT
  5
4C01
330
4871
100
AcDbEntity
  8
DEFPOINTS
 62
     0
100
AcDbPoint
 10
525.890345968612
 20
171.5527443604992
 30
0.0
  0
POINT
  5
4C02
330
4871
100
AcDbEntity
  8
DEFPOINTS
 62
     0
100
AcDbPoint
 10
540.9493633406436
 20
171.5527443604992
 30
0.0
  0
ENDBLK
  5
4873
330
4871
100
AcDbEntity
  8
0
100
AcDbBlockEnd
  0
BLOCK
  5
4880
330
487F
100
AcDbEntity
  8
0
100
AcDbBlockBegin
  2
*D31
 70
     1
 10
0.0
 20
0.0
 30
0.0
  3
*D31
  1

  0
LINE
  5
4C03
330
487F
100
AcDbEntity
  8
0
  6
Continuous
 62
     3
370
    13
100
AcDbLine
 10
538.4829209686097
 20
185.584734990396
 30
0.0
 11
539.615039465762
 21
185.584734990396
 31
0.0
  0
LINE
  5
4C04
330
487F
100
AcDbEntity
  8
0
  6
Continuous
 62
     3
370
    13
100
AcDbLine
 10
537.9672443072871
 20
180.0729311028881
 30
0.0
 11
539.615039465762
 21
180.0729311028881
 31
0.0
  0
LINE
  5
4C05
330
487F
100
AcDbEntity
  8
0
  6
Continuous
 62
     3
370
    13
100
AcDbLine
 10
539.295039465762
 20
184.934734990396
 30
0.0
 11
539.295039465762
 21
184.3504997133088
 31
0.0
  0
LINE
  5
4C06
330
487F
100
AcDbEntity
  8
0
  6
Continuous
 62
     3
370
    13
100
AcDbLine
 10
539.295039465762
 20
180.7229311028881
 30
0.0
 11
539.295039465762
 21
181.3071663799754
 31
0.0
  0
SOLID
  5
4C07
330
487F
100
AcDbEntity
  8
0
 62
     3
100
AcDbTrace
 10
539.1867061324286
 20
184.934734990396
 30
0.0
 11
539.4033727990953
 21
184.934734990396
 31
0.0
 12
539.295039465762
 22
185.584734990396
 32
0.0
 13
539.295039465762
 23
185.584734990396
 33
0.0
  0
SOLID
  5
4C08
330
487F
100
AcDbEntity
  8
0
 62
     3
100
AcDbTrace
 10
539.1867061324286
 20
180.7229311028881
 30
0.0
 11
539.4033727990953
 21
180.7229311028881
 31
0.0
 12
539.295039465762
 22
180.0729311028881
 32
0.0
 13
539.295039465762
 23
180.0729311028881
 33
0.0
  0
MTEXT
  5
4C09
330
487F
100
AcDbEntity
  8
0
 62
     3
100
AcDbMText
 10
539.295039465762
 20
182.8288330466422
 30
0.0
 40
0.65
 41
0.0
 71
     5
 72
     1
  1
\A1;5 1/2"
 11
0.0000000000000001
 21
1.0
 31
0.0
 73
     1
 44
1.0
1001
ACAD
1000
MTEXTBEGIN
1070
    73
1070
     1
1070
    44
1040
1.0
1070
    74
1070
     0
1000
MTEXTEND
  0
POINT
  5
4C0A
330
487F
100
AcDbEntity
  8
DEFPOINTS
 62
     0
100
AcDbPoint
 10
537.6029209686097
 20
185.584734990396
 30
0.0
  0
POINT
  5
4C0B
330
487F
100
AcDbEntity
  8
DEFPOINTS
 62
     0
100
AcDbPoint
 10
537.0872443072872
 20
180.0729311028881
 30
0.0
  0
POINT
  5
4C0C
330
487F
100
AcDbEntity
  8
DEFPOINTS
 62
     0
100
AcDbPoint
 10
539.295039465762
 20
180.0729311028881
 30
0.0
  0
ENDBLK
  5
4881
330
487F
100
AcDbEntity
  8
0
100
AcDbBlockEnd
  0
BLOCK
  5
4B1E
330
4B1D
100
AcDbEntity
  8
0
 48
5.0
100
AcDbBlockBegin
  2
GENAXEH
 70
     0
 10
0.0
 20
0.0
 30
0.0
  3
GENAXEH
  1

  0
LINE
  5
4B1F
330
4B1D
100
AcDbEntity
  8
0
100
AcDbLine
 10
-1.0
 20
0.0
 30
0.0
 11
1.0
 21
0.0
 31
0.0
  0
ENDBLK
  5
4B20
330
4B1D
100
AcDbEntity
  8
0
 48
5.0
100
AcDbBlockEnd
  0
BLOCK
  5
4BC0
330
4BBF
100
AcDbEntity
  8
0
100
AcDbBlockBegin
  2
*D33
 70
     1
 10
0.0
 20
0.0
 30
0.0
  3
*D33
  1

  0
LINE
  5
4C0D
330
4BBF
100
AcDbEntity
  8
0
  6
Continuous
 62
     3
370
    13
100
AcDbLine
 10
570.8453083029712
 20
155.5827600955841
 30
0.0
 11
570.8453083029712
 21
149.7694299400397
 31
0.0
  0
LINE
  5
4C0E
330
4BBF
100
AcDbEntity
  8
0
  6
Continuous
 62
     3
370
    13
100
AcDbLine
 10
598.8373783029715
 20
155.5827600955841
 30
0.0
 11
598.8373783029715
 21
149.7694299400397
 31
0.0
  0
LINE
  5
4C0F
330
4BBF
100
AcDbEntity
  8
0
  6
Continuous
 62
     3
370
    13
100
AcDbLine
 10
571.4953083029712
 20
150.0894299400397
 30
0.0
 11
584.009398858527
 21
150.0894299400397
 31
0.0
  0
LINE
  5
4C10
330
4BBF
100
AcDbEntity
  8
0
  6
Continuous
 62
     3
370
    13
100
AcDbLine
 10
598.1873783029715
 20
150.0894299400397
 30
0.0
 11
585.6732877474157
 21
150.0894299400397
 31
0.0
  0
SOLID
  5
4C11
330
4BBF
100
AcDbEntity
  8
0
 62
     3
100
AcDbTrace
 10
571.4953083029712
 20
150.197763273373
 30
0.0
 11
571.4953083029712
 21
149.9810966067064
 31
0.0
 12
570.8453083029712
 22
150.0894299400397
 32
0.0
 13
570.8453083029712
 23
150.0894299400397
 33
0.0
  0
SOLID
  5
4C12
330
4BBF
100
AcDbEntity
  8
0
 62
     3
100
AcDbTrace
 10
598.1873783029715
 20
150.197763273373
 30
0.0
 11
598.1873783029715
 21
149.9810966067064
 31
0.0
 12
598.8373783029715
 22
150.0894299400397
 32
0.0
 13
598.8373783029715
 23
150.0894299400397
 33
0.0
  0
MTEXT
  5
4C13
330
4BBF
100
AcDbEntity
  8
0
 62
     3
100
AcDbMText
 10
584.8413433029714
 20
150.0894299400397
 30
0.0
 40
0.65
 41
0.0
 71
     5
 72
     1
  1
\A1;28"
 73
     1
 44
1.0
1001
ACAD
1000
MTEXTBEGIN
1070
    73
1070
     1
1070
    44
1040
1.0
1070
    74
1070
     0
1000
MTEXTEND
  0
POINT
  5
4C14
330
4BBF
100
AcDbEntity
  8
DEFPOINTS
 62
     0
100
AcDbPoint
 10
570.8453083029712
 20
156.4627600955841
 30
0.0
  0
POINT
  5
4C15
330
4BBF
100
AcDbEntity
  8
DEFPOINTS
 62
     0
100
AcDbPoint
 10
598.8373783029715
 20
156.4627600955841
 30
0.0
  0
POINT
  5
4C16
330
4BBF
100
AcDbEntity
  8
DEFPOINTS
 62
     0
100
AcDbPoint
 10
598.8373783029715
 20
150.0894299400397
 30
0.0
  0
ENDBLK
  5
4BC1
330
4BBF
100
AcDbEntity
  8
0
100
AcDbBlockEnd
  0
BLOCK
  5
4BCE
330
4BCD
100
AcDbEntity
  8
0
100
AcDbBlockBegin
  2
*D34
 70
     1
 10
0.0
 20
0.0
 30
0.0
  3
*D34
  1

  0
LINE
  5
4D2A
330
4BCD
100
AcDbEntity
  8
0
  6
Continuous
 62
     3
370
    13
100
AcDbLine
 10
569.8610583029699
 20
155.5827600955877
 30
0.0
 11
569.8610583029699
 21
147.9168609550064
 31
0.0
  0
LINE
  5
4D2B
330
4BCD
100
AcDbEntity
  8
0
  6
Continuous
 62
     3
370
    13
100
AcDbLine
 10
599.8216283029726
 20
155.5827600955877
 30
0.0
 11
599.8216283029726
 21
147.9168609550064
 31
0.0
  0
LINE
  5
4D2C
330
4BCD
100
AcDbEntity
  8
0
  6
Continuous
 62
     3
370
    13
100
AcDbLine
 10
570.5110583029699
 20
148.2368609550064
 30
0.0
 11
584.013009969638
 21
148.2368609550064
 31
0.0
  0
LINE
  5
4D2D
330
4BCD
100
AcDbEntity
  8
0
  6
Continuous
 62
     3
370
    13
100
AcDbLine
 10
599.1716283029727
 20
148.2368609550064
 30
0.0
 11
585.6696766363048
 21
148.2368609550064
 31
0.0
  0
SOLID
  5
4D2E
330
4BCD
100
AcDbEntity
  8
0
 62
     3
100
AcDbTrace
 10
570.5110583029699
 20
148.3451942883396
 30
0.0
 11
570.5110583029699
 21
148.1285276216731
 31
0.0
 12
569.8610583029699
 22
148.2368609550064
 32
0.0
 13
569.8610583029699
 23
148.2368609550064
 33
0.0
  0
SOLID
  5
4D2F
330
4BCD
100
AcDbEntity
  8
0
 62
     3
100
AcDbTrace
 10
599.1716283029727
 20
148.3451942883396
 30
0.0
 11
599.1716283029727
 21
148.1285276216731
 31
0.0
 12
599.8216283029726
 22
148.2368609550064
 32
0.0
 13
599.8216283029726
 23
148.2368609550064
 33
0.0
  0
MTEXT
  5
4D30
330
4BCD
100
AcDbEntity
  8
0
 62
     3
100
AcDbMText
 10
584.8413433029714
 20
148.2368609550064
 30
0.0
 40
0.65
 41
0.0
 71
     5
 72
     1
  1
\A1;30"
 73
     1
 44
1.0
1001
ACAD
1000
MTEXTBEGIN
1070
    73
1070
     1
1070
    44
1040
1.0
1070
    74
1070
     0
1000
MTEXTEND
  0
POINT
  5
4D31
330
4BCD
100
AcDbEntity
  8
DEFPOINTS
 62
     0
100
AcDbPoint
 10
569.8610583029699
 20
156.4627600955878
 30
0.0
  0
POINT
  5
4D32
330
4BCD
100
AcDbEntity
  8
DEFPOINTS
 62
     0
100
AcDbPoint
 10
599.8216283029726
 20
156.4627600955878
 30
0.0
  0
POINT
  5
4D33
330
4BCD
100
AcDbEntity
  8
DEFPOINTS
 62
     0
100
AcDbPoint
 10
599.8216283029726
 20
148.2368609550064
 30
0.0
  0
ENDBLK
  5
4BCF
330
4BCD
100
AcDbEntity
  8
0
100
AcDbBlockEnd
  0
BLOCK
  5
4C23
330
4C22
100
AcDbEntity
  8
0
100
AcDbBlockBegin
  2
*D35
 70
     1
 10
0.0
 20
0.0
 30
0.0
  3
*D35
  1

  0
LINE
  5
4C25
330
4C22
100
AcDbEntity
  8
0
  6
Continuous
 62
     3
370
    13
100
AcDbLine
 10
595.7803783029698
 20
152.5257600955824
 30
0.0
 11
602.4015966024534
 21
152.5257600955824
 31
0.0
  0
LINE
  5
4C26
330
4C22
100
AcDbEntity
  8
0
  6
Continuous
 62
     3
370
    13
100
AcDbLine
 10
595.7803783029698
 20
168.6674600955898
 30
0.0
 11
602.4015966024534
 21
168.6674600955898
 31
0.0
  0
LINE
  5
4C27
330
4C22
100
AcDbEntity
  8
0
  6
Continuous
 62
     3
370
    13
100
AcDbLine
 10
602.0815966024533
 20
153.1757600955824
 30
0.0
 11
602.0815966024533
 21
158.8691100955861
 31
0.0
  0
LINE
  5
4C28
330
4C22
100
AcDbEntity
  8
0
  6
Continuous
 62
     3
370
    13
100
AcDbLine
 10
602.0815966024533
 20
168.0174600955898
 30
0.0
 11
602.0815966024533
 21
162.3241100955861
 31
0.0
  0
SOLID
  5
4C29
330
4C22
100
AcDbEntity
  8
0
 62
     3
100
AcDbTrace
 10
601.97326326912
 20
153.1757600955824
 30
0.0
 11
602.1899299357867
 21
153.1757600955824
 31
0.0
 12
602.0815966024533
 22
152.5257600955824
 32
0.0
 13
602.0815966024533
 23
152.5257600955824
 33
0.0
  0
SOLID
  5
4C2A
330
4C22
100
AcDbEntity
  8
0
 62
     3
100
AcDbTrace
 10
601.97326326912
 20
168.0174600955898
 30
0.0
 11
602.1899299357867
 21
168.0174600955898
 31
0.0
 12
602.0815966024533
 22
168.6674600955898
 32
0.0
 13
602.0815966024533
 23
168.6674600955898
 33
0.0
  0
MTEXT
  5
4C2B
330
4C22
100
AcDbEntity
  8
0
 62
     3
100
AcDbMText
 10
602.0815966024533
 20
160.5966100955862
 30
0.0
 40
0.65
 41
0.0
 71
     5
 72
     1
  1
\A1;16 1/8"
 11
0.0000000000000001
 21
1.0
 31
0.0
 73
     1
 44
1.0
1001
ACAD
1000
MTEXTBEGIN
1070
    73
1070
     1
1070
    44
1040
1.0
1070
    74
1070
     0
1000
MTEXTEND
  0
POINT
  5
4C2C
330
4C22
100
AcDbEntity
  8
DEFPOINTS
 62
     0
100
AcDbPoint
 10
594.9003783029698
 20
152.5257600955824
 30
0.0
  0
POINT
  5
4C2D
330
4C22
100
AcDbEntity
  8
DEFPOINTS
 62
     0
100
AcDbPoint
 10
594.9003783029698
 20
168.6674600955898
 30
0.0
  0
POINT
  5
4C2E
330
4C22
100
AcDbEntity
  8
DEFPOINTS
 62
     0
100
AcDbPoint
 10
602.0815966024533
 20
168.6674600955898
 30
0.0
  0
ENDBLK
  5
4C24
330
4C22
100
AcDbEntity
  8
0
100
AcDbBlockEnd
  0
BLOCK
  5
4C31
330
4C30
100
AcDbEntity
  8
0
100
AcDbBlockBegin
  2
*D36
 70
     1
 10
0.0
 20
0.0
 30
0.0
  3
*D36
  1

  0
LINE
  5
4C33
330
4C30
100
AcDbEntity
  8
0
  6
Continuous
 62
     3
370
    13
100
AcDbLine
 10
595.7803783029734
 20
151.5415100955883
 30
0.0
 11
603.9278928909359
 21
151.5415100955883
 31
0.0
  0
LINE
  5
4C34
330
4C30
100
AcDbEntity
  8
0
  6
Continuous
 62
     3
370
    13
100
AcDbLine
 10
595.7803783029734
 20
169.6517100955839
 30
0.0
 11
603.9278928909359
 21
169.6517100955839
 31
0.0
  0
LINE
  5
4C35
330
4C30
100
AcDbEntity
  8
0
  6
Continuous
 62
     3
370
    13
100
AcDbLine
 10
603.6078928909359
 20
152.1915100955884
 30
0.0
 11
603.6078928909359
 21
158.8691100955861
 31
0.0
  0
LINE
  5
4C36
330
4C30
100
AcDbEntity
  8
0
  6
Continuous
 62
     3
370
    13
100
AcDbLine
 10
603.6078928909359
 20
169.0017100955839
 30
0.0
 11
603.6078928909359
 21
162.3241100955861
 31
0.0
  0
SOLID
  5
4C37
330
4C30
100
AcDbEntity
  8
0
 62
     3
100
AcDbTrace
 10
603.4995595576027
 20
152.1915100955884
 30
0.0
 11
603.7162262242692
 21
152.1915100955884
 31
0.0
 12
603.6078928909359
 22
151.5415100955883
 32
0.0
 13
603.6078928909359
 23
151.5415100955883
 33
0.0
  0
SOLID
  5
4C38
330
4C30
100
AcDbEntity
  8
0
 62
     3
100
AcDbTrace
 10
603.4995595576027
 20
169.0017100955839
 30
0.0
 11
603.7162262242692
 21
169.0017100955839
 31
0.0
 12
603.6078928909359
 22
169.6517100955839
 32
0.0
 13
603.6078928909359
 23
169.6517100955839
 33
0.0
  0
MTEXT
  5
4C39
330
4C30
100
AcDbEntity
  8
0
 62
     3
100
AcDbMText
 10
603.6078928909359
 20
160.5966100955862
 30
0.0
 40
0.65
 41
0.0
 71
     5
 72
     1
  1
\A1;18 1/8"
 11
0.0000000000000001
 21
1.0
 31
0.0
 73
     1
 44
1.0
1001
ACAD
1000
MTEXTBEGIN
1070
    73
1070
     1
1070
    44
1040
1.0
1070
    74
1070
     0
1000
MTEXTEND
  0
POINT
  5
4C3A
330
4C30
100
AcDbEntity
  8
DEFPOINTS
 62
     0
100
AcDbPoint
 10
594.9003783029734
 20
151.5415100955883
 30
0.0
  0
POINT
  5
4C3B
330
4C30
100
AcDbEntity
  8
DEFPOINTS
 62
     0
100
AcDbPoint
 10
594.9003783029734
 20
169.6517100955839
 30
0.0
  0
POINT
  5
4C3C
330
4C30
100
AcDbEntity
  8
DEFPOINTS
 62
     0
100
AcDbPoint
 10
603.6078928909359
 20
169.6517100955839
 30
0.0
  0
ENDBLK
  5
4C32
330
4C30
100
AcDbEntity
  8
0
100
AcDbBlockEnd
  0
BLOCK
  5
4C3F
330
4C3E
100
AcDbEntity
  8
0
100
AcDbBlockBegin
  2
*D37
 70
     1
 10
0.0
 20
0.0
 30
0.0
  3
*D37
  1

  0
LINE
  5
4C41
330
4C3E
100
AcDbEntity
  8
0
  6
Continuous
 62
     3
370
    13
100
AcDbLine
 10
600.7651588172006
 20
185.6195213068913
 30
0.0
 11
602.2699370568947
 21
185.6195213068913
 31
0.0
  0
LINE
  5
4C42
330
4C3E
100
AcDbEntity
  8
0
  6
Continuous
 62
     3
370
    13
100
AcDbLine
 10
600.7651588172006
 20
180.1195213068913
 30
0.0
 11
602.2699370568947
 21
180.1195213068913
 31
0.0
  0
LINE
  5
4C43
330
4C3E
100
AcDbEntity
  8
0
  6
Continuous
 62
     3
370
    13
100
AcDbLine
 10
601.9499370568945
 20
184.9695213068913
 30
0.0
 11
601.9499370568945
 21
184.391187973558
 31
0.0
  0
LINE
  5
4C44
330
4C3E
100
AcDbEntity
  8
0
  6
Continuous
 62
     3
370
    13
100
AcDbLine
 10
601.9499370568945
 20
180.7695213068913
 30
0.0
 11
601.9499370568945
 21
181.3478546402246
 31
0.0
  0
SOLID
  5
4C45
330
4C3E
100
AcDbEntity
  8
0
 62
     3
100
AcDbTrace
 10
601.8416037235612
 20
184.9695213068913
 30
0.0
 11
602.058270390228
 21
184.9695213068913
 31
0.0
 12
601.9499370568945
 22
185.6195213068913
 32
0.0
 13
601.9499370568945
 23
185.6195213068913
 33
0.0
  0
SOLID
  5
4C46
330
4C3E
100
AcDbEntity
  8
0
 62
     3
100
AcDbTrace
 10
601.8416037235612
 20
180.7695213068913
 30
0.0
 11
602.058270390228
 21
180.7695213068913
 31
0.0
 12
601.9499370568945
 22
180.1195213068913
 32
0.0
 13
601.9499370568945
 23
180.1195213068913
 33
0.0
  0
MTEXT
  5
4C47
330
4C3E
100
AcDbEntity
  8
0
 62
     3
100
AcDbMText
 10
601.9499370568945
 20
182.8695213068914
 30
0.0
 40
0.65
 41
0.0
 71
     5
 72
     1
  1
\A1;5 1/2"
 11
0.0000000000000001
 21
1.0
 31
0.0
 73
     1
 44
1.0
1001
ACAD
1000
MTEXTBEGIN
1070
    73
1070
     1
1070
    44
1040
1.0
1070
    74
1070
     0
1000
MTEXTEND
  0
POINT
  5
4C48
330
4C3E
100
AcDbEntity
  8
DEFPOINTS
 62
     0
100
AcDbPoint
 10
599.8851588172006
 20
185.6195213068913
 30
0.0
  0
POINT
  5
4C49
330
4C3E
100
AcDbEntity
  8
DEFPOINTS
 62
     0
100
AcDbPoint
 10
599.8851588172006
 20
180.1195213068913
 30
0.0
  0
POINT
  5
4C4A
330
4C3E
100
AcDbEntity
  8
DEFPOINTS
 62
     0
100
AcDbPoint
 10
601.9499370568945
 20
180.1195213068913
 30
0.0
  0
ENDBLK
  5
4C40
330
4C3E
100
AcDbEntity
  8
0
100
AcDbBlockEnd
  0
BLOCK
  5
4F2F
330
4F2E
100
AcDbEntity
  8
0
100
AcDbBlockBegin
  2
*D38
 70
     1
 10
0.0
 20
0.0
 30
0.0
  3
*D38
  1

  0
LINE
  5
4F31
330
4F2E
100
AcDbEntity
  8
0
  6
Continuous
 62
     3
370
    13
100
AcDbLine
 10
637.7239743344002
 20
159.279779478603
 30
0.0
 11
637.7239743344002
 21
147.5870487193744
 31
0.0
  0
LINE
  5
4F32
330
4F2E
100
AcDbEntity
  8
0
  6
Continuous
 62
     3
370
    13
100
AcDbLine
 10
653.4719743344035
 20
159.279779478603
 30
0.0
 11
653.4719743344035
 21
147.5870487193744
 31
0.0
  0
LINE
  5
4F33
330
4F2E
100
AcDbEntity
  8
0
  6
Continuous
 62
     3
370
    13
100
AcDbLine
 10
638.3739743344002
 20
147.9070487193744
 30
0.0
 11
643.8704743344018
 21
147.9070487193744
 31
0.0
  0
LINE
  5
4F34
330
4F2E
100
AcDbEntity
  8
0
  6
Continuous
 62
     3
370
    13
100
AcDbLine
 10
652.8219743344035
 20
147.9070487193744
 30
0.0
 11
647.3254743344019
 21
147.9070487193744
 31
0.0
  0
SOLID
  5
4F35
330
4F2E
100
AcDbEntity
  8
0
 62
     3
100
AcDbTrace
 10
638.3739743344002
 20
148.0153820527077
 30
0.0
 11
638.3739743344002
 21
147.7987153860411
 31
0.0
 12
637.7239743344002
 22
147.9070487193744
 32
0.0
 13
637.7239743344002
 23
147.9070487193744
 33
0.0
  0
SOLID
  5
4F36
330
4F2E
100
AcDbEntity
  8
0
 62
     3
100
AcDbTrace
 10
652.8219743344035
 20
148.0153820527077
 30
0.0
 11
652.8219743344035
 21
147.7987153860411
 31
0.0
 12
653.4719743344035
 22
147.9070487193744
 32
0.0
 13
653.4719743344035
 23
147.9070487193744
 33
0.0
  0
MTEXT
  5
4F37
330
4F2E
100
AcDbEntity
  8
0
 62
     3
100
AcDbMText
 10
645.5979743344019
 20
147.9070487193744
 30
0.0
 40
0.65
 41
0.0
 71
     5
 72
     1
  1
\A1;15 3/4"
 73
     1
 44
1.0
1001
ACAD
1000
MTEXTBEGIN
1070
    73
1070
     1
1070
    44
1040
1.0
1070
    74
1070
     0
1000
MTEXTEND
  0
POINT
  5
4F38
330
4F2E
100
AcDbEntity
  8
DEFPOINTS
 62
     0
100
AcDbPoint
 10
637.7239743344002
 20
160.159779478603
 30
0.0
  0
POINT
  5
4F39
330
4F2E
100
AcDbEntity
  8
DEFPOINTS
 62
     0
100
AcDbPoint
 10
653.4719743344035
 20
160.159779478603
 30
0.0
  0
POINT
  5
4F3A
330
4F2E
100
AcDbEntity
  8
DEFPOINTS
 62
     0
100
AcDbPoint
 10
653.4719743344035
 20
147.9070487193744
 30
0.0
  0
ENDBLK
  5
4F30
330
4F2E
100
AcDbEntity
  8
0
100
AcDbBlockEnd
  0
BLOCK
  5
4F3D
330
4F3C
100
AcDbEntity
  8
0
100
AcDbBlockBegin
  2
*D39
 70
     1
 10
0.0
 20
0.0
 30
0.0
  3
*D39
  1

  0
LINE
  5
4F3F
330
4F3C
100
AcDbEntity
  8
0
  6
Continuous
 62
     3
370
    13
100
AcDbLine
 10
654.7396883344036
 20
158.1774194786022
 30
0.0
 11
654.7396883344036
 21
147.5870487193744
 31
0.0
  0
LINE
  5
4F40
330
4F3C
100
AcDbEntity
  8
0
  6
Continuous
 62
     3
370
    13
100
AcDbLine
 10
667.7317883343985
 20
158.1774194786022
 30
0.0
 11
667.7317883343985
 21
147.5870487193744
 31
0.0
  0
LINE
  5
4F41
330
4F3C
100
AcDbEntity
  8
0
  6
Continuous
 62
     3
370
    13
100
AcDbLine
 10
655.3896883344036
 20
147.9070487193744
 30
0.0
 11
660.4326827788455
 21
147.9070487193744
 31
0.0
  0
LINE
  5
4F42
330
4F3C
100
AcDbEntity
  8
0
  6
Continuous
 62
     3
370
    13
100
AcDbLine
 10
667.0817883343985
 20
147.9070487193744
 30
0.0
 11
662.0387938899567
 21
147.9070487193744
 31
0.0
  0
SOLID
  5
4F43
330
4F3C
100
AcDbEntity
  8
0
 62
     3
100
AcDbTrace
 10
655.3896883344036
 20
148.0153820527077
 30
0.0
 11
655.3896883344036
 21
147.7987153860411
 31
0.0
 12
654.7396883344036
 22
147.9070487193744
 32
0.0
 13
654.7396883344036
 23
147.9070487193744
 33
0.0
  0
SOLID
  5
4F44
330
4F3C
100
AcDbEntity
  8
0
 62
     3
100
AcDbTrace
 10
667.0817883343985
 20
148.0153820527077
 30
0.0
 11
667.0817883343985
 21
147.7987153860411
 31
0.0
 12
667.7317883343985
 22
147.9070487193744
 32
0.0
 13
667.7317883343985
 23
147.9070487193744
 33
0.0
  0
MTEXT
  5
4F45
330
4F3C
100
AcDbEntity
  8
0
 62
     3
100
AcDbMText
 10
661.2357383344011
 20
147.9070487193744
 30
0.0
 40
0.65
 41
0.0
 71
     5
 72
     1
  1
\A1;13"
 73
     1
 44
1.0
1001
ACAD
1000
MTEXTBEGIN
1070
    73
1070
     1
1070
    44
1040
1.0
1070
    74
1070
     0
1000
MTEXTEND
  0
POINT
  5
4F46
330
4F3C
100
AcDbEntity
  8
DEFPOINTS
 62
     0
100
AcDbPoint
 10
654.7396883344036
 20
159.0574194786022
 30
0.0
  0
POINT
  5
4F47
330
4F3C
100
AcDbEntity
  8
DEFPOINTS
 62
     0
100
AcDbPoint
 10
667.7317883343985
 20
159.0574194786022
 30
0.0
  0
POINT
  5
4F48
330
4F3C
100
AcDbEntity
  8
DEFPOINTS
 62
     0
100
AcDbPoint
 10
667.7317883343985
 20
147.9070487193744
 30
0.0
  0
ENDBLK
  5
4F3E
330
4F3C
100
AcDbEntity
  8
0
100
AcDbBlockEnd
  0
BLOCK
  5
4F4B
330
4F4A
100
AcDbEntity
  8
0
100
AcDbBlockBegin
  2
*D40
 70
     1
 10
0.0
 20
0.0
 30
0.0
  3
*D40
  1

  0
LINE
  5
4F4D
330
4F4A
100
AcDbEntity
  8
0
  6
Continuous
 62
     3
370
    13
100
AcDbLine
 10
636.723976334398
 20
153.4372714786033
 30
0.0
 11
636.723976334398
 21
145.6057083657385
 31
0.0
  0
LINE
  5
4F4E
330
4F4A
100
AcDbEntity
  8
0
  6
Continuous
 62
     3
370
    13
100
AcDbLine
 10
668.7317863344018
 20
153.4372714786033
 30
0.0
 11
668.7317863344018
 21
145.6057083657385
 31
0.0
  0
LINE
  5
4F4F
330
4F4A
100
AcDbEntity
  8
0
  6
Continuous
 62
     3
370
    13
100
AcDbLine
 10
637.3739763343977
 20
145.9257083657385
 30
0.0
 11
651.8995480010666
 21
145.9257083657385
 31
0.0
  0
LINE
  5
4F50
330
4F4A
100
AcDbEntity
  8
0
  6
Continuous
 62
     3
370
    13
100
AcDbLine
 10
668.0817863344017
 20
145.9257083657385
 30
0.0
 11
653.5562146677332
 21
145.9257083657385
 31
0.0
  0
SOLID
  5
4F51
330
4F4A
100
AcDbEntity
  8
0
 62
     3
100
AcDbTrace
 10
637.3739763343977
 20
146.0340416990718
 30
0.0
 11
637.3739763343977
 21
145.8173750324052
 31
0.0
 12
636.723976334398
 22
145.9257083657385
 32
0.0
 13
636.723976334398
 23
145.9257083657385
 33
0.0
  0
SOLID
  5
4F52
330
4F4A
100
AcDbEntity
  8
0
 62
     3
100
AcDbTrace
 10
668.0817863344017
 20
146.0340416990718
 30
0.0
 11
668.0817863344017
 21
145.8173750324052
 31
0.0
 12
668.7317863344018
 22
145.9257083657385
 32
0.0
 13
668.7317863344018
 23
145.9257083657385
 33
0.0
  0
MTEXT
  5
4F53
330
4F4A
100
AcDbEntity
  8
0
 62
     3
100
AcDbMText
 10
652.7278813344
 20
145.9257083657385
 30
0.0
 40
0.65
 41
0.0
 71
     5
 72
     1
  1
\A1;32"
 73
     1
 44
1.0
1001
ACAD
1000
MTEXTBEGIN
1070
    73
1070
     1
1070
    44
1040
1.0
1070
    74
1070
     0
1000
MTEXTEND
  0
POINT
  5
4F54
330
4F4A
100
AcDbEntity
  8
DEFPOINTS
 62
     0
100
AcDbPoint
 10
636.723976334398
 20
154.3172714786033
 30
0.0
  0
POINT
  5
4F55
330
4F4A
100
AcDbEntity
  8
DEFPOINTS
 62
     0
100
AcDbPoint
 10
668.7317863344018
 20
154.3172714786033
 30
0.0
  0
POINT
  5
4F56
330
4F4A
100
AcDbEntity
  8
DEFPOINTS
 62
     0
100
AcDbPoint
 10
668.7317863344018
 20
145.9257083657385
 30
0.0
  0
ENDBLK
  5
4F4C
330
4F4A
100
AcDbEntity
  8
0
100
AcDbBlockEnd
  0
BLOCK
  5
5178
330
5177
100
AcDbEntity
  8
0
100
AcDbBlockBegin
  2
*D41
 70
     1
 10
0.0
 20
0.0
 30
0.0
  3
*D41
  1

  0
LINE
  5
518E
330
5177
100
AcDbEntity
  8
0
  6
Continuous
 62
     3
370
    13
100
AcDbLine
 10
635.7633009589914
 20
185.3934324651927
 30
0.0
 11
634.2585227192972
 21
185.3934324651927
 31
0.0
  0
LINE
  5
518F
330
5177
100
AcDbEntity
  8
0
  6
Continuous
 62
     3
370
    13
100
AcDbLine
 10
635.7633009589914
 20
179.8934324651927
 30
0.0
 11
634.2585227192972
 21
179.8934324651927
 31
0.0
  0
LINE
  5
5190
330
5177
100
AcDbEntity
  8
0
  6
Continuous
 62
     3
370
    13
100
AcDbLine
 10
634.5785227192972
 20
184.7434324651927
 30
0.0
 11
634.5785227192972
 21
184.1650991318594
 31
0.0
  0
LINE
  5
5191
330
5177
100
AcDbEntity
  8
0
  6
Continuous
 62
     3
370
    13
100
AcDbLine
 10
634.5785227192972
 20
180.5434324651927
 30
0.0
 11
634.5785227192972
 21
181.1217657985261
 31
0.0
  0
SOLID
  5
5192
330
5177
100
AcDbEntity
  8
0
 62
     3
100
AcDbTrace
 10
634.470189385964
 20
184.7434324651927
 30
0.0
 11
634.6868560526303
 21
184.7434324651927
 31
0.0
 12
634.5785227192972
 22
185.3934324651927
 32
0.0
 13
634.5785227192972
 23
185.3934324651927
 33
0.0
  0
SOLID
  5
5193
330
5177
100
AcDbEntity
  8
0
 62
     3
100
AcDbTrace
 10
634.470189385964
 20
180.5434324651927
 30
0.0
 11
634.6868560526303
 21
180.5434324651927
 31
0.0
 12
634.5785227192972
 22
179.8934324651927
 32
0.0
 13
634.5785227192972
 23
179.8934324651927
 33
0.0
  0
MTEXT
  5
5194
330
5177
100
AcDbEntity
  8
0
 62
     3
100
AcDbMText
 10
634.5785227192972
 20
182.6434324651928
 30
0.0
 40
0.65
 41
0.0
 71
     5
 72
     1
  1
\A1;5 1/2"
 11
0.0000000000000001
 21
1.0
 31
0.0
 73
     1
 44
1.0
1001
ACAD
1000
MTEXTBEGIN
1070
    73
1070
     1
1070
    44
1040
1.0
1070
    74
1070
     0
1000
MTEXTEND
  0
POINT
  5
5195
330
5177
100
AcDbEntity
  8
DEFPOINTS
 62
     0
100
AcDbPoint
 10
636.6433009589914
 20
185.3934324651927
 30
0.0
  0
POINT
  5
5196
330
5177
100
AcDbEntity
  8
DEFPOINTS
 62
     0
100
AcDbPoint
 10
636.6433009589914
 20
179.8934324651927
 30
0.0
  0
POINT
  5
5197
330
5177
100
AcDbEntity
  8
DEFPOINTS
 62
     0
100
AcDbPoint
 10
634.5785227192972
 20
179.8934324651927
 30
0.0
  0
ENDBLK
  5
5179
330
5177
100
AcDbEntity
  8
0
100
AcDbBlockEnd
  0
BLOCK
  5
519A
330
5199
100
AcDbEntity
  8
0
100
AcDbBlockBegin
  2
*D42
 70
     1
 10
0.0
 20
0.0
 30
0.0
  3
*D42
  1

  0
LINE
  5
519C
330
5199
100
AcDbEntity
  8
0
  6
Continuous
 62
     3
370
    13
100
AcDbLine
 10
669.5311109589867
 20
185.3934324651927
 30
0.0
 11
670.8129175504875
 21
185.3934324651927
 31
0.0
  0
LINE
  5
519D
330
5199
100
AcDbEntity
  8
0
  6
Continuous
 62
     3
370
    13
100
AcDbLine
 10
669.5311109589867
 20
181.3934324651927
 30
0.0
 11
670.8129175504875
 21
181.3934324651927
 31
0.0
  0
LINE
  5
519E
330
5199
100
AcDbEntity
  8
0
  6
Continuous
 62
     3
370
    13
100
AcDbLine
 10
670.4929175504876
 20
184.7434324651927
 30
0.0
 11
670.4929175504876
 21
184.0014880207483
 31
0.0
  0
LINE
  5
519F
330
5199
100
AcDbEntity
  8
0
  6
Continuous
 62
     3
370
    13
100
AcDbLine
 10
670.4929175504876
 20
182.0434324651927
 30
0.0
 11
670.4929175504876
 21
182.7853769096372
 31
0.0
  0
SOLID
  5
51A0
330
5199
100
AcDbEntity
  8
0
 62
     3
100
AcDbTrace
 10
670.3845842171542
 20
184.7434324651927
 30
0.0
 11
670.601250883821
 21
184.7434324651927
 31
0.0
 12
670.4929175504876
 22
185.3934324651927
 32
0.0
 13
670.4929175504876
 23
185.3934324651927
 33
0.0
  0
SOLID
  5
51A1
330
5199
100
AcDbEntity
  8
0
 62
     3
100
AcDbTrace
 10
670.3845842171542
 20
182.0434324651927
 30
0.0
 11
670.601250883821
 21
182.0434324651927
 31
0.0
 12
670.4929175504876
 22
181.3934324651927
 32
0.0
 13
670.4929175504876
 23
181.3934324651927
 33
0.0
  0
MTEXT
  5
51A2
330
5199
100
AcDbEntity
  8
0
 62
     3
100
AcDbMText
 10
670.4929175504876
 20
183.3934324651928
 30
0.0
 40
0.65
 41
0.0
 71
     5
 72
     1
  1
\A1;4"
 11
0.0000000000000001
 21
1.0
 31
0.0
 73
     1
 44
1.0
1001
ACAD
1000
MTEXTBEGIN
1070
    73
1070
     1
1070
    44
1040
1.0
1070
    74
1070
     0
1000
MTEXTEND
  0
POINT
  5
51A3
330
5199
100
AcDbEntity
  8
DEFPOINTS
 62
     0
100
AcDbPoint
 10
668.6511109589869
 20
185.3934324651927
 30
0.0
  0
POINT
  5
51A4
330
5199
100
AcDbEntity
  8
DEFPOINTS
 62
     0
100
AcDbPoint
 10
668.6511109589869
 20
181.3934324651927
 30
0.0
  0
POINT
  5
51A5
330
5199
100
AcDbEntity
  8
DEFPOINTS
 62
     0
100
AcDbPoint
 10
670.4929175504876
 20
181.3934324651927
 30
0.0
  0
ENDBLK
  5
519B
330
5199
100
AcDbEntity
  8
0
100
AcDbBlockEnd
  0
BLOCK
  5
51DC
330
51DB
100
AcDbEntity
  8
0
100
AcDbBlockBegin
  2
*D43
 70
     1
 10
0.0
 20
0.0
 30
0.0
  3
*D43
  1

  0
LINE
  5
51DE
330
51DB
100
AcDbEntity
  8
0
  6
Continuous
 62
     3
370
    13
100
AcDbLine
 10
662.115738334401
 20
150.7897194786029
 30
0.0
 11
670.9786757774602
 21
150.7897194786029
 31
0.0
  0
LINE
  5
51DF
330
51DB
100
AcDbEntity
  8
0
  6
Continuous
 62
     3
370
    13
100
AcDbLine
 10
662.115738334401
 20
167.3251194786034
 30
0.0
 11
670.9786757774602
 21
167.3251194786034
 31
0.0
  0
LINE
  5
51E0
330
51DB
100
AcDbEntity
  8
0
  6
Continuous
 62
     3
370
    13
100
AcDbLine
 10
670.6586757774602
 20
151.4397194786029
 30
0.0
 11
670.6586757774602
 21
157.3299194786031
 31
0.0
  0
LINE
  5
51E1
330
51DB
100
AcDbEntity
  8
0
  6
Continuous
 62
     3
370
    13
100
AcDbLine
 10
670.6586757774602
 20
166.6751194786034
 30
0.0
 11
670.6586757774602
 21
160.7849194786031
 31
0.0
  0
SOLID
  5
51E2
330
51DB
100
AcDbEntity
  8
0
 62
     3
100
AcDbTrace
 10
670.5503424441267
 20
151.4397194786029
 30
0.0
 11
670.7670091107936
 21
151.4397194786029
 31
0.0
 12
670.6586757774602
 22
150.7897194786029
 32
0.0
 13
670.6586757774602
 23
150.7897194786029
 33
0.0
  0
SOLID
  5
51E3
330
51DB
100
AcDbEntity
  8
0
 62
     3
100
AcDbTrace
 10
670.5503424441267
 20
166.6751194786034
 30
0.0
 11
670.7670091107936
 21
166.6751194786034
 31
0.0
 12
670.6586757774602
 22
167.3251194786034
 32
0.0
 13
670.6586757774602
 23
167.3251194786034
 33
0.0
  0
MTEXT
  5
51E4
330
51DB
100
AcDbEntity
  8
0
 62
     3
100
AcDbMText
 10
670.6586757774602
 20
159.0574194786032
 30
0.0
 40
0.65
 41
0.0
 71
     5
 72
     1
  1
\A1;16 1/2"
 11
0.0000000000000001
 21
1.0
 31
0.0
 73
     1
 44
1.0
1001
ACAD
1000
MTEXTBEGIN
1070
    73
1070
     1
1070
    44
1040
1.0
1070
    74
1070
     0
1000
MTEXTEND
  0
POINT
  5
51E5
330
51DB
100
AcDbEntity
  8
DEFPOINTS
 62
     0
100
AcDbPoint
 10
661.2357383344011
 20
150.7897194786029
 30
0.0
  0
POINT
  5
51E6
330
51DB
100
AcDbEntity
  8
DEFPOINTS
 62
     0
100
AcDbPoint
 10
661.2357383344011
 20
167.3251194786034
 30
0.0
  0
POINT
  5
51E7
330
51DB
100
AcDbEntity
  8
DEFPOINTS
 62
     0
100
AcDbPoint
 10
670.6586757774602
 20
167.3251194786034
 30
0.0
  0
ENDBLK
  5
51DD
330
51DB
100
AcDbEntity
  8
0
100
AcDbBlockEnd
  0
BLOCK
  5
51EA
330
51E9
100
AcDbEntity
  8
0
100
AcDbBlockBegin
  2
*D44
 70
     1
 10
0.0
 20
0.0
 30
0.0
  3
*D44
  1

  0
LINE
  5
51EC
330
51E9
100
AcDbEntity
  8
0
  6
Continuous
 62
     3
370
    13
100
AcDbLine
 10
665.084236334403
 20
149.7897214786026
 30
0.0
 11
672.6788914952869
 21
149.7897214786026
 31
0.0
  0
LINE
  5
51ED
330
51E9
100
AcDbEntity
  8
0
  6
Continuous
 62
     3
370
    13
100
AcDbLine
 10
665.084236334403
 20
168.3251174786037
 30
0.0
 11
672.6788914952869
 21
168.3251174786037
 31
0.0
  0
LINE
  5
51EE
330
51E9
100
AcDbEntity
  8
0
  6
Continuous
 62
     3
370
    13
100
AcDbLine
 10
672.358891495287
 20
150.4397214786026
 30
0.0
 11
672.358891495287
 21
157.3299194786032
 31
0.0
  0
LINE
  5
51EF
330
51E9
100
AcDbEntity
  8
0
  6
Continuous
 62
     3
370
    13
100
AcDbLine
 10
672.358891495287
 20
167.6751174786037
 30
0.0
 11
672.358891495287
 21
160.7849194786032
 31
0.0
  0
SOLID
  5
51F0
330
51E9
100
AcDbEntity
  8
0
 62
     3
100
AcDbTrace
 10
672.2505581619536
 20
150.4397214786026
 30
0.0
 11
672.4672248286204
 21
150.4397214786026
 31
0.0
 12
672.358891495287
 22
149.7897214786026
 32
0.0
 13
672.358891495287
 23
149.7897214786026
 33
0.0
  0
SOLID
  5
51F1
330
51E9
100
AcDbEntity
  8
0
 62
     3
100
AcDbTrace
 10
672.2505581619536
 20
167.6751174786037
 30
0.0
 11
672.4672248286204
 21
167.6751174786037
 31
0.0
 12
672.358891495287
 22
168.3251174786037
 32
0.0
 13
672.358891495287
 23
168.3251174786037
 33
0.0
  0
MTEXT
  5
51F2
330
51E9
100
AcDbEntity
  8
0
 62
     3
100
AcDbMText
 10
672.358891495287
 20
159.0574194786033
 30
0.0
 40
0.65
 41
0.0
 71
     5
 72
     1
  1
\A1;18 1/2"
 11
0.0000000000000001
 21
1.0
 31
0.0
 73
     1
 44
1.0
1001
ACAD
1000
MTEXTBEGIN
1070
    73
1070
     1
1070
    44
1040
1.0
1070
    74
1070
     0
1000
MTEXTEND
  0
POINT
  5
51F3
330
51E9
100
AcDbEntity
  8
DEFPOINTS
 62
     0
100
AcDbPoint
 10
664.204236334403
 20
149.7897214786026
 30
0.0
  0
POINT
  5
51F4
330
51E9
100
AcDbEntity
  8
DEFPOINTS
 62
     0
100
AcDbPoint
 10
664.204236334403
 20
168.3251174786037
 30
0.0
  0
POINT
  5
51F5
330
51E9
100
AcDbEntity
  8
DEFPOINTS
 62
     0
100
AcDbPoint
 10
672.358891495287
 20
168.3251174786037
 30
0.0
  0
ENDBLK
  5
51EB
330
51E9
100
AcDbEntity
  8
0
100
AcDbBlockEnd
  0
BLOCK
  5
51F8
330
51F7
100
AcDbEntity
  8
0
100
AcDbBlockBegin
  2
*D45
 70
     1
 10
0.0
 20
0.0
 30
0.0
  3
*D45
  1

  0
LINE
  5
51FA
330
51F7
100
AcDbEntity
  8
0
  6
Continuous
 62
     3
370
    13
100
AcDbLine
 10
644.7179743344019
 20
150.7897194786024
 30
0.0
 11
634.4315930738424
 21
150.7897194786024
 31
0.0
  0
LINE
  5
51FB
330
51F7
100
AcDbEntity
  8
0
  6
Continuous
 62
     3
370
    13
100
AcDbLine
 10
644.7179743344019
 20
169.5298394786036
 30
0.0
 11
634.4315930738424
 21
169.5298394786036
 31
0.0
  0
LINE
  5
51FC
330
51F7
100
AcDbEntity
  8
0
  6
Continuous
 62
     3
370
    13
100
AcDbLine
 10
634.7515930738427
 20
151.4397194786024
 30
0.0
 11
634.7515930738427
 21
158.432279478603
 31
0.0
  0
LINE
  5
51FD
330
51F7
100
AcDbEntity
  8
0
  6
Continuous
 62
     3
370
    13
100
AcDbLine
 10
634.7515930738427
 20
168.8798394786036
 30
0.0
 11
634.7515930738427
 21
161.887279478603
 31
0.0
  0
SOLID
  5
51FE
330
51F7
100
AcDbEntity
  8
0
 62
     3
100
AcDbTrace
 10
634.6432597405094
 20
151.4397194786024
 30
0.0
 11
634.8599264071761
 21
151.4397194786024
 31
0.0
 12
634.7515930738427
 22
150.7897194786024
 32
0.0
 13
634.7515930738427
 23
150.7897194786024
 33
0.0
  0
SOLID
  5
51FF
330
51F7
100
AcDbEntity
  8
0
 62
     3
100
AcDbTrace
 10
634.6432597405094
 20
168.8798394786036
 30
0.0
 11
634.8599264071761
 21
168.8798394786036
 31
0.0
 12
634.7515930738427
 22
169.5298394786036
 32
0.0
 13
634.7515930738427
 23
169.5298394786036
 33
0.0
  0
MTEXT
  5
5200
330
51F7
100
AcDbEntity
  8
0
 62
     3
100
AcDbMText
 10
634.7515930738427
 20
160.1597794786031
 30
0.0
 40
0.65
 41
0.0
 71
     5
 72
     1
  1
\A1;18 3/4"
 11
0.0000000000000001
 21
1.0
 31
0.0
 73
     1
 44
1.0
1001
ACAD
1000
MTEXTBEGIN
1070
    73
1070
     1
1070
    44
1040
1.0
1070
    74
1070
     0
1000
MTEXTEND
  0
POINT
  5
5201
330
51F7
100
AcDbEntity
  8
DEFPOINTS
 62
     0
100
AcDbPoint
 10
645.5979743344019
 20
150.7897194786024
 30
0.0
  0
POINT
  5
5202
330
51F7
100
AcDbEntity
  8
DEFPOINTS
 62
     0
100
AcDbPoint
 10
645.5979743344019
 20
169.5298394786036
 30
0.0
  0
POINT
  5
5203
330
51F7
100
AcDbEntity
  8
DEFPOINTS
 62
     0
100
AcDbPoint
 10
634.7515930738427
 20
169.5298394786036
 30
0.0
  0
ENDBLK
  5
51F9
330
51F7
100
AcDbEntity
  8
0
100
AcDbBlockEnd
  0
BLOCK
  5
5206
330
5205
100
AcDbEntity
  8
0
100
AcDbBlockBegin
  2
*D46
 70
     1
 10
0.0
 20
0.0
 30
0.0
  3
*D46
  1

  0
LINE
  5
5208
330
5205
100
AcDbEntity
  8
0
  6
Continuous
 62
     3
370
    13
100
AcDbLine
 10
640.3715263343979
 20
149.7897214786026
 30
0.0
 11
632.7539493907813
 21
149.7897214786026
 31
0.0
  0
LINE
  5
5209
330
5205
100
AcDbEntity
  8
0
  6
Continuous
 62
     3
370
    13
100
AcDbLine
 10
640.3715263343979
 20
170.5298374786034
 30
0.0
 11
632.7539493907813
 21
170.5298374786034
 31
0.0
  0
LINE
  5
520A
330
5205
100
AcDbEntity
  8
0
  6
Continuous
 62
     3
370
    13
100
AcDbLine
 10
633.073949390781
 20
150.4397214786026
 30
0.0
 11
633.073949390781
 21
158.4033905897141
 31
0.0
  0
LINE
  5
520B
330
5205
100
AcDbEntity
  8
0
  6
Continuous
 62
     3
370
    13
100
AcDbLine
 10
633.073949390781
 20
169.8798374786034
 30
0.0
 11
633.073949390781
 21
161.9161683674919
 31
0.0
  0
SOLID
  5
520C
330
5205
100
AcDbEntity
  8
0
 62
     3
100
AcDbTrace
 10
632.9656160574477
 20
150.4397214786026
 30
0.0
 11
633.1822827241146
 21
150.4397214786026
 31
0.0
 12
633.073949390781
 22
149.7897214786026
 32
0.0
 13
633.073949390781
 23
149.7897214786026
 33
0.0
  0
SOLID
  5
520D
330
5205
100
AcDbEntity
  8
0
 62
     3
100
AcDbTrace
 10
632.9656160574477
 20
169.8798374786034
 30
0.0
 11
633.1822827241146
 21
169.8798374786034
 31
0.0
 12
633.073949390781
 22
170.5298374786034
 32
0.0
 13
633.073949390781
 23
170.5298374786034
 33
0.0
  0
MTEXT
  5
520E
330
5205
100
AcDbEntity
  8
0
 62
     3
100
AcDbMText
 10
633.073949390781
 20
160.1597794786031
 30
0.0
 40
0.65
 41
0.0
 71
     5
 72
     1
  1
\A1;20 3/4"
 11
0.0000000000000001
 21
1.0
 31
0.0
 73
     1
 44
1.0
1001
ACAD
1000
MTEXTBEGIN
1070
    73
1070
     1
1070
    44
1040
1.0
1070
    74
1070
     0
1000
MTEXTEND
  0
POINT
  5
520F
330
5205
100
AcDbEntity
  8
DEFPOINTS
 62
     0
100
AcDbPoint
 10
641.2515263343979
 20
149.7897214786026
 30
0.0
  0
POINT
  5
5210
330
5205
100
AcDbEntity
  8
DEFPOINTS
 62
     0
100
AcDbPoint
 10
641.2515263343979
 20
170.5298374786034
 30
0.0
  0
POINT
  5
5211
330
5205
100
AcDbEntity
  8
DEFPOINTS
 62
     0
100
AcDbPoint
 10
633.073949390781
 20
170.5298374786034
 30
0.0
  0
ENDBLK
  5
5207
330
5205
100
AcDbEntity
  8
0
100
AcDbBlockEnd
  0
BLOCK
  5
5367
330
5366
100
AcDbEntity
  8
0
 48
5.0
100
AcDbBlockBegin
  2
_None
 70
     0
 10
0.0
 20
0.0
 30
0.0
  3
_None
  1

  0
ENDBLK
  5
5368
330
5366
100
AcDbEntity
  8
0
 48
5.0
100
AcDbBlockEnd
  0
BLOCK
  5
5524
330
551F
100
AcDbEntity
  8
0
100
AcDbBlockBegin
  2
A$C2558637D
 70
     0
 10
0.0
 20
0.0
 30
0.0
  3
A$C2558637D
  1

  0
TEXT
  5
5520
330
551F
100
AcDbEntity
  8
标注
100
AcDbText
 10
7.575172182807933
 20
0.2771899266507205
 30
0.0
 40
0.7874015748031497
  1
TOP MOUNT CUTOUT
100
AcDbText
  0
LINE
  5
5521
330
551F
100
AcDbEntity
  8
截面层
 62
     1
100
AcDbLine
 10
0.0000003891219649
 20
0.5303913939555259
 30
0.0
 11
6.216805393205389
 21
0.5303913939555259
 31
0.0
  0
ENDBLK
  5
5525
330
551F
100
AcDbEntity
  8
0
100
AcDbBlockEnd
  0
BLOCK
  5
552A
330
5529
100
AcDbEntity
  8
0
100
AcDbBlockBegin
  2
*D49
 70
     1
 10
0.0
 20
0.0
 30
0.0
  3
*D49
  1

  0
LINE
  5
552C
330
5529
100
AcDbEntity
  8
0
  6
Continuous
 62
     3
370
    13
100
AcDbLine
 10
698.6935733290829
 20
155.1119650864239
 30
0.0
 11
698.6935733290829
 21
144.3919367110711
 31
0.0
  0
LINE
  5
552D
330
5529
100
AcDbEntity
  8
0
  6
Continuous
 62
     3
370
    13
100
AcDbLine
 10
728.2210733290855
 20
155.1119650864093
 30
0.0
 11
728.2210733290855
 21
144.3919367110711
 31
0.0
  0
LINE
  5
552E
330
5529
100
AcDbEntity
  8
0
  6
Continuous
 62
     3
370
    13
100
AcDbLine
 10
699.3435733290829
 20
144.711936711071
 30
0.0
 11
711.7009344401952
 21
144.711936711071
 31
0.0
  0
LINE
  5
552F
330
5529
100
AcDbEntity
  8
0
  6
Continuous
 62
     3
370
    13
100
AcDbLine
 10
727.5710733290857
 20
144.711936711071
 30
0.0
 11
715.213712217973
 21
144.711936711071
 31
0.0
  0
SOLID
  5
5530
330
5529
100
AcDbEntity
  8
0
 62
     3
100
AcDbTrace
 10
699.3435733290829
 20
144.8202700444044
 30
0.0
 11
699.3435733290829
 21
144.6036033777377
 31
0.0
 12
698.6935733290829
 22
144.711936711071
 32
0.0
 13
698.6935733290829
 23
144.711936711071
 33
0.0
  0
SOLID
  5
5531
330
5529
100
AcDbEntity
  8
0
 62
     3
100
AcDbTrace
 10
727.5710733290857
 20
144.8202700444044
 30
0.0
 11
727.5710733290857
 21
144.6036033777377
 31
0.0
 12
728.2210733290855
 22
144.711936711071
 32
0.0
 13
728.2210733290855
 23
144.711936711071
 33
0.0
  0
MTEXT
  5
5532
330
5529
100
AcDbEntity
  8
0
 62
     3
100
AcDbMText
 10
713.4573233290844
 20
144.711936711071
 30
0.0
 40
0.65
 41
0.0
 71
     5
 72
     1
  1
\A1;29 1/2"
 73
     1
 44
1.0
1001
ACAD
1000
MTEXTBEGIN
1070
    73
1070
     1
1070
    44
1040
1.0
1070
    74
1070
     0
1000
MTEXTEND
  0
POINT
  5
5533
330
5529
100
AcDbEntity
  8
DEFPOINTS
 62
     0
100
AcDbPoint
 10
698.6935733290829
 20
155.9919650864239
 30
0.0
  0
POINT
  5
5534
330
5529
100
AcDbEntity
  8
DEFPOINTS
 62
     0
100
AcDbPoint
 10
728.2210733290855
 20
155.9919650864093
 30
0.0
  0
POINT
  5
5535
330
5529
100
AcDbEntity
  8
DEFPOINTS
 62
     0
100
AcDbPoint
 10
728.2210733290855
 20
144.711936711071
 30
0.0
  0
ENDBLK
  5
552B
330
5529
100
AcDbEntity
  8
0
100
AcDbBlockEnd
  0
BLOCK
  5
5538
330
5537
100
AcDbEntity
  8
0
100
AcDbBlockBegin
  2
*D50
 70
     1
 10
0.0
 20
0.0
 30
0.0
  3
*D50
  1

  0
LINE
  5
553A
330
5537
100
AcDbEntity
  8
0
  6
Continuous
 62
     3
370
    13
100
AcDbLine
 10
696.9612933290806
 20
147.1592250864159
 30
0.0
 11
696.9612933290806
 21
142.5333639043359
 31
0.0
  0
LINE
  5
553B
330
5537
100
AcDbEntity
  8
0
  6
Continuous
 62
     3
370
    13
100
AcDbLine
 10
729.9533533290826
 20
147.1592250864159
 30
0.0
 11
729.9533533290826
 21
142.5333639043359
 31
0.0
  0
LINE
  5
553C
330
5537
100
AcDbEntity
  8
0
  6
Continuous
 62
     3
370
    13
100
AcDbLine
 10
697.6112933290806
 20
142.8533639043358
 30
0.0
 11
712.6289899957482
 21
142.8533639043358
 31
0.0
  0
LINE
  5
553D
330
5537
100
AcDbEntity
  8
0
  6
Continuous
 62
     3
370
    13
100
AcDbLine
 10
729.3033533290826
 20
142.8533639043358
 30
0.0
 11
714.285656662415
 21
142.8533639043358
 31
0.0
  0
SOLID
  5
553E
330
5537
100
AcDbEntity
  8
0
 62
     3
100
AcDbTrace
 10
697.6112933290806
 20
142.9616972376692
 30
0.0
 11
697.6112933290806
 21
142.7450305710025
 31
0.0
 12
696.9612933290806
 22
142.8533639043358
 32
0.0
 13
696.9612933290806
 23
142.8533639043358
 33
0.0
  0
SOLID
  5
553F
330
5537
100
AcDbEntity
  8
0
 62
     3
100
AcDbTrace
 10
729.3033533290826
 20
142.9616972376692
 30
0.0
 11
729.3033533290826
 21
142.7450305710025
 31
0.0
 12
729.9533533290826
 22
142.8533639043358
 32
0.0
 13
729.9533533290826
 23
142.8533639043358
 33
0.0
  0
MTEXT
  5
5540
330
5537
100
AcDbEntity
  8
0
 62
     3
100
AcDbMText
 10
713.4573233290815
 20
142.8533639043358
 30
0.0
 40
0.65
 41
0.0
 71
     5
 72
     1
  1
\A1;33"
 73
     1
 44
1.0
1001
ACAD
1000
MTEXTBEGIN
1070
    73
1070
     1
1070
    44
1040
1.0
1070
    74
1070
     0
1000
MTEXTEND
  0
POINT
  5
5541
330
5537
100
AcDbEntity
  8
DEFPOINTS
 62
     0
100
AcDbPoint
 10
696.9612933290806
 20
148.0392250864159
 30
0.0
  0
POINT
  5
5542
330
5537
100
AcDbEntity
  8
DEFPOINTS
 62
     0
100
AcDbPoint
 10
729.9533533290826
 20
148.0392250864159
 30
0.0
  0
POINT
  5
5543
330
5537
100
AcDbEntity
  8
DEFPOINTS
 62
     0
100
AcDbPoint
 10
729.9533533290826
 20
142.8533639043358
 30
0.0
  0
ENDBLK
  5
5539
330
5537
100
AcDbEntity
  8
0
100
AcDbBlockEnd
  0
BLOCK
  5
5546
330
5545
100
AcDbEntity
  8
0
100
AcDbBlockBegin
  2
*D51
 70
     1
 10
0.0
 20
0.0
 30
0.0
  3
*D51
  1

  0
LINE
  5
5548
330
5545
100
AcDbEntity
  8
0
  6
Continuous
 62
     3
370
    13
100
AcDbLine
 10
714.3373233290872
 20
148.196705086426
 30
0.0
 11
731.8604214344075
 21
148.196705086426
 31
0.0
  0
LINE
  5
5549
330
5545
100
AcDbEntity
  8
0
  6
Continuous
 62
     3
370
    13
100
AcDbLine
 10
714.3373233290876
 20
164.1415550864236
 30
0.0
 11
731.8604214344075
 21
164.1415550864236
 31
0.0
  0
LINE
  5
554A
330
5545
100
AcDbEntity
  8
0
  6
Continuous
 62
     3
370
    13
100
AcDbLine
 10
731.5404214344072
 20
148.846705086426
 30
0.0
 11
731.5404214344072
 21
155.3660745308693
 31
0.0
  0
LINE
  5
554B
330
5545
100
AcDbEntity
  8
0
  6
Continuous
 62
     3
370
    13
100
AcDbLine
 10
731.5404214344072
 20
163.4915550864235
 30
0.0
 11
731.5404214344072
 21
156.9721856419804
 31
0.0
  0
SOLID
  5
554C
330
5545
100
AcDbEntity
  8
0
 62
     3
100
AcDbTrace
 10
731.4320881010741
 20
148.846705086426
 30
0.0
 11
731.6487547677407
 21
148.846705086426
 31
0.0
 12
731.5404214344072
 22
148.196705086426
 32
0.0
 13
731.5404214344072
 23
148.196705086426
 33
0.0
  0
SOLID
  5
554D
330
5545
100
AcDbEntity
  8
0
 62
     3
100
AcDbTrace
 10
731.4320881010741
 20
163.4915550864235
 30
0.0
 11
731.6487547677407
 21
163.4915550864235
 31
0.0
 12
731.5404214344072
 22
164.1415550864236
 32
0.0
 13
731.5404214344072
 23
164.1415550864236
 33
0.0
  0
MTEXT
  5
554E
330
5545
100
AcDbEntity
  8
0
 62
     3
100
AcDbMText
 10
731.5404214344072
 20
156.1691300864249
 30
0.0
 40
0.65
 41
0.0
 71
     5
 72
     1
  1
\A1;16"
 11
0.0000000000000001
 21
1.0
 31
0.0
 73
     1
 44
1.0
1001
ACAD
1000
MTEXTBEGIN
1070
    73
1070
     1
1070
    44
1040
1.0
1070
    74
1070
     0
1000
MTEXTEND
  0
POINT
  5
554F
330
5545
100
AcDbEntity
  8
DEFPOINTS
 62
     0
100
AcDbPoint
 10
713.4573233290872
 20
148.196705086426
 30
0.0
  0
POINT
  5
5550
330
5545
100
AcDbEntity
  8
DEFPOINTS
 62
     0
100
AcDbPoint
 10
713.4573233290876
 20
164.1415550864236
 30
0.0
  0
POINT
  5
5551
330
5545
100
AcDbEntity
  8
DEFPOINTS
 62
     0
100
AcDbPoint
 10
731.5404214344072
 20
164.1415550864236
 30
0.0
  0
ENDBLK
  5
5547
330
5545
100
AcDbEntity
  8
0
100
AcDbBlockEnd
  0
BLOCK
  5
5554
330
5553
100
AcDbEntity
  8
0
100
AcDbBlockBegin
  2
*D52
 70
     1
 10
0.0
 20
0.0
 30
0.0
  3
*D52
  1

  0
LINE
  5
5560
330
5553
100
AcDbEntity
  8
0
  6
Continuous
 62
     3
370
    13
100
AcDbLine
 10
729.1010733290855
 20
146.4644250864139
 30
0.0
 11
733.9102335406549
 21
146.4644250864139
 31
0.0
  0
LINE
  5
5561
330
5553
100
AcDbEntity
  8
0
  6
Continuous
 62
     3
370
    13
100
AcDbLine
 10
729.1010733290855
 20
168.4328850864175
 30
0.0
 11
733.9102335406549
 21
168.4328850864175
 31
0.0
  0
LINE
  5
5562
330
5553
100
AcDbEntity
  8
0
  6
Continuous
 62
     3
370
    13
100
AcDbLine
 10
733.5902335406546
 20
147.1144250864139
 30
0.0
 11
733.5902335406546
 21
155.3528670353756
 31
0.0
  0
LINE
  5
5563
330
5553
100
AcDbEntity
  8
0
  6
Continuous
 62
     3
370
    13
100
AcDbLine
 10
733.5902335406546
 20
167.7828850864175
 30
0.0
 11
733.5902335406546
 21
157.0167559242645
 31
0.0
  0
MTEXT
  5
5564
330
5553
100
AcDbEntity
  8
0
 62
     3
100
AcDbMText
 10
733.5902335406546
 20
156.1848114798201
 30
0.0
 40
0.65
 41
0.0
 71
     5
 72
     1
  1
\A1;22"
 11
0.0000000000000001
 21
1.0
 31
0.0
 73
     1
 44
1.0
1001
ACAD
1000
MTEXTBEGIN
1070
    73
1070
     1
1070
    44
1040
1.0
1070
    74
1070
     0
1000
MTEXTEND
  0
SOLID
  5
5565
330
5553
100
AcDbEntity
  8
0
 62
     3
100
AcDbTrace
 10
733.4819002073214
 20
147.1144250864139
 30
0.0
 11
733.6985668739881
 21
147.1144250864139
 31
0.0
 12
733.5902335406546
 22
146.4644250864139
 32
0.0
 13
733.5902335406546
 23
146.4644250864139
 33
0.0
  0
SOLID
  5
5566
330
5553
100
AcDbEntity
  8
0
 62
     3
100
AcDbTrace
 10
733.4819002073214
 20
167.7828850864175
 30
0.0
 11
733.6985668739881
 21
167.7828850864175
 31
0.0
 12
733.5902335406546
 22
168.4328850864175
 32
0.0
 13
733.5902335406546
 23
168.4328850864175
 33
0.0
  0
POINT
  5
5567
330
5553
100
AcDbEntity
  8
DEFPOINTS
 62
     0
100
AcDbPoint
 10
728.2210733290855
 20
146.4644250864139
 30
0.0
  0
POINT
  5
5568
330
5553
100
AcDbEntity
  8
DEFPOINTS
 62
     0
100
AcDbPoint
 10
728.2210733290855
 20
168.4328850864175
 30
0.0
  0
POINT
  5
5569
330
5553
100
AcDbEntity
  8
DEFPOINTS
 62
     0
100
AcDbPoint
 10
733.5902335406546
 20
168.4328850864175
 30
0.0
  0
ENDBLK
  5
5555
330
5553
100
AcDbEntity
  8
0
100
AcDbBlockEnd
  0
BLOCK
  5
55AA
330
55A9
100
AcDbEntity
  8
0
100
AcDbBlockBegin
  2
*D53
 70
     1
 10
0.0
 20
0.0
 30
0.0
  3
*D53
  1

  0
LINE
  5
55C0
330
55A9
100
AcDbEntity
  8
0
  6
Continuous
 62
     3
370
    13
100
AcDbLine
 10
730.6395046292566
 20
182.9277254553661
 30
0.0
 11
732.1442828689507
 21
182.9277254553661
 31
0.0
  0
LINE
  5
55C1
330
55A9
100
AcDbEntity
  8
0
  6
Continuous
 62
     3
370
    13
100
AcDbLine
 10
730.6395046292566
 20
177.4277254553661
 30
0.0
 11
732.1442828689507
 21
177.4277254553661
 31
0.0
  0
LINE
  5
55C2
330
55A9
100
AcDbEntity
  8
0
  6
Continuous
 62
     3
370
    13
100
AcDbLine
 10
731.8242828689508
 20
182.2777254553661
 30
0.0
 11
731.8242828689508
 21
181.6993921220328
 31
0.0
  0
LINE
  5
55C3
330
55A9
100
AcDbEntity
  8
0
  6
Continuous
 62
     3
370
    13
100
AcDbLine
 10
731.8242828689508
 20
178.0777254553662
 30
0.0
 11
731.8242828689508
 21
178.6560587886994
 31
0.0
  0
SOLID
  5
55C4
330
55A9
100
AcDbEntity
  8
0
 62
     3
100
AcDbTrace
 10
731.7159495356174
 20
182.2777254553661
 30
0.0
 11
731.9326162022839
 21
182.2777254553661
 31
0.0
 12
731.8242828689508
 22
182.9277254553661
 32
0.0
 13
731.8242828689508
 23
182.9277254553661
 33
0.0
  0
SOLID
  5
55C5
330
55A9
100
AcDbEntity
  8
0
 62
     3
100
AcDbTrace
 10
731.7159495356174
 20
178.0777254553662
 30
0.0
 11
731.9326162022839
 21
178.0777254553662
 31
0.0
 12
731.8242828689508
 22
177.4277254553661
 32
0.0
 13
731.8242828689508
 23
177.4277254553661
 33
0.0
  0
MTEXT
  5
55C6
330
55A9
100
AcDbEntity
  8
0
 62
     3
100
AcDbMText
 10
731.8242828689508
 20
180.1777254553662
 30
0.0
 40
0.65
 41
0.0
 71
     5
 72
     1
  1
\A1;5 1/2"
 11
0.0000000000000001
 21
1.0
 31
0.0
 73
     1
 44
1.0
1001
ACAD
1000
MTEXTBEGIN
1070
    73
1070
     1
1070
    44
1040
1.0
1070
    74
1070
     0
1000
MTEXTEND
  0
POINT
  5
55C7
330
55A9
100
AcDbEntity
  8
DEFPOINTS
 62
     0
100
AcDbPoint
 10
729.7595046292566
 20
182.9277254553661
 30
0.0
  0
POINT
  5
55C8
330
55A9
100
AcDbEntity
  8
DEFPOINTS
 62
     0
100
AcDbPoint
 10
729.7595046292566
 20
177.4277254553661
 30
0.0
  0
POINT
  5
55C9
330
55A9
100
AcDbEntity
  8
DEFPOINTS
 62
     0
100
AcDbPoint
 10
731.8242828689508
 20
177.4277254553661
 30
0.0
  0
ENDBLK
  5
55AB
330
55A9
100
AcDbEntity
  8
0
100
AcDbBlockEnd
  0
BLOCK
  5
5759
330
5758
100
AcDbEntity
  8
0
 48
5.0
100
AcDbBlockBegin
  2
*D54
 70
     1
 10
0.0
 20
0.0
 30
0.0
  3
*D54
  1

  0
LINE
  5
575A
330
5758
100
AcDbEntity
  8
标注
  6
Continuous
 62
     3
 48
5.0
370
     9
100
AcDbLine
 10
52965.55691281066
 20
-81129.51247969007
 30
0.0
 11
52957.71387698219
 21
-81129.51247969007
 31
0.0
  0
LINE
  5
575B
330
5758
100
AcDbEntity
  8
标注
  6
Continuous
 62
     3
 48
5.0
370
     9
100
AcDbLine
 10
52965.55691281066
 20
-81151.55967969007
 30
0.0
 11
52957.71387698219
 21
-81151.55967969007
 31
0.0
  0
LINE
  5
575C
330
5758
100
AcDbEntity
  8
标注
  6
Continuous
 62
     3
 48
5.0
370
     9
100
AcDbLine
 10
52960.71387698219
 20
-81114.51247969007
 30
0.0
 11
52960.71387698219
 21
-81099.51247969007
 31
0.0
  0
LINE
  5
575D
330
5758
100
AcDbEntity
  8
标注
  6
Continuous
 62
     3
 48
5.0
370
     9
100
AcDbLine
 10
52960.71387698219
 20
-81166.55967969007
 30
0.0
 11
52960.71387698219
 21
-81181.55967969007
 31
0.0
  0
LINE
  5
575E
330
5758
100
AcDbEntity
  8
标注
  6
Continuous
 62
     3
 48
5.0
370
     9
100
AcDbLine
 10
52960.71387698219
 20
-81129.51247969007
 30
0.0
 11
52960.71387698219
 21
-81151.55967969007
 31
0.0
  0
SOLID
  5
575F
330
5758
100
AcDbEntity
  8
标注
 62
     3
 48
5.0
100
AcDbTrace
 10
52958.21387698219
 20
-81114.51247969007
 30
0.0
 11
52963.21387698219
 21
-81114.51247969007
 31
0.0
 12
52960.71387698219
 22
-81129.51247969007
 32
0.0
 13
52960.71387698219
 23
-81129.51247969007
 33
0.0
  0
SOLID
  5
5760
330
5758
100
AcDbEntity
  8
标注
 62
     3
 48
5.0
100
AcDbTrace
 10
52958.21387698219
 20
-81166.55967969007
 30
0.0
 11
52963.21387698219
 21
-81166.55967969007
 31
0.0
 12
52960.71387698219
 22
-81151.55967969007
 32
0.0
 13
52960.71387698219
 23
-81151.55967969007
 33
0.0
  0
MTEXT
  5
5761
330
5758
100
AcDbEntity
  8
标注
 62
     3
 48
5.0
100
AcDbMText
 10
52960.71387698219
 20
-81228.02420902157
 30
0.0
 40
18.0
 41
0.0
 71
     5
 72
     1
  1
7/8" [0"]
  7
Roman
 11
0.0000000000000001
 21
1.0
 31
0.0
 73
     1
 44
1.0
1001
ACAD
1000
MTEXTBEGIN
1070
    73
1070
     1
1070
    44
1040
1.0
1070
    74
1070
     0
1000
MTEXTEND
  0
POINT
  5
5762
330
5758
100
AcDbEntity
  8
DEFPOINTS
 62
     0
 48
5.0
100
AcDbPoint
 10
52965.55691281066
 20
-81129.51247969007
 30
0.0
  0
POINT
  5
5763
330
5758
100
AcDbEntity
  8
DEFPOINTS
 62
     0
 48
5.0
100
AcDbPoint
 10
52965.55691281066
 20
-81151.55967969007
 30
0.0
  0
POINT
  5
5764
330
5758
100
AcDbEntity
  8
DEFPOINTS
 62
     0
 48
5.0
100
AcDbPoint
 10
52960.71387698219
 20
-81151.55967969007
 30
0.0
  0
ENDBLK
  5
5765
330
5758
100
AcDbEntity
  8
0
 48
5.0
100
AcDbBlockEnd
  0
BLOCK
  5
5767
330
5766
100
AcDbEntity
  8
0
 48
5.0
100
AcDbBlockBegin
  2
*D55
 70
     1
 10
0.0
 20
0.0
 30
0.0
  3
*D55
  1

  0
LINE
  5
5768
330
5766
100
AcDbEntity
  8
0
  6
Continuous
 62
     3
370
     9
100
AcDbLine
 10
52965.74982581066
 20
-81151.95337969009
 30
0.0
 11
52965.74982581066
 21
-81156.50762788385
 31
0.0
  0
LINE
  5
5769
330
5766
100
AcDbEntity
  8
0
  6
Continuous
 62
     3
370
     9
100
AcDbLine
 10
52981.49782581067
 20
-81151.95337969009
 30
0.0
 11
52981.49782581067
 21
-81156.50762788385
 31
0.0
  0
LINE
  5
576A
330
5766
100
AcDbEntity
  8
0
  6
Continuous
 62
     3
370
     9
100
AcDbLine
 10
52950.74982581066
 20
-81153.50762788386
 30
0.0
 11
52935.74982581066
 21
-81153.50762788386
 31
0.0
  0
LINE
  5
576B
330
5766
100
AcDbEntity
  8
0
  6
Continuous
 62
     3
370
     9
100
AcDbLine
 10
52996.49782581066
 20
-81153.50762788386
 30
0.0
 11
53011.49782581066
 21
-81153.50762788386
 31
0.0
  0
LINE
  5
576C
330
5766
100
AcDbEntity
  8
0
  6
Continuous
 62
     3
370
     9
100
AcDbLine
 10
52965.74982581066
 20
-81153.50762788386
 30
0.0
 11
52981.49782581067
 21
-81153.50762788386
 31
0.0
  0
SOLID
  5
576D
330
5766
100
AcDbEntity
  8
0
 62
     3
100
AcDbTrace
 10
52950.74982581066
 20
-81151.00762788385
 30
0.0
 11
52950.74982581066
 21
-81156.00762788385
 31
0.0
 12
52965.74982581066
 22
-81153.50762788386
 32
0.0
 13
52965.74982581066
 23
-81153.50762788386
 33
0.0
  0
SOLID
  5
576E
330
5766
100
AcDbEntity
  8
0
 62
     3
100
AcDbTrace
 10
52996.49782581066
 20
-81151.00762788385
 30
0.0
 11
52996.49782581066
 21
-81156.00762788385
 31
0.0
 12
52981.49782581067
 22
-81153.50762788386
 32
0.0
 13
52981.49782581067
 23
-81153.50762788386
 33
0.0
  0
MTEXT
  5
576F
330
5766
100
AcDbEntity
  8
0
 62
     3
370
    -3
100
AcDbMText
 10
53036.32797587887
 20
-81153.50762788386
 30
0.0
 40
18.0
 41
0.0
 71
     5
 72
     1
  1
5/8"
  7
Roman
 73
     1
 44
1.0
1001
ACAD
1000
MTEXTBEGIN
1070
    73
1070
     1
1070
    44
1040
1.0
1070
    74
1070
     0
1000
MTEXTEND
  0
POINT
  5
5770
330
5766
100
AcDbEntity
  8
DEFPOINTS
 62
     0
100
AcDbPoint
 10
52965.74982581066
 20
-81151.95337969009
 30
0.0
  0
POINT
  5
5771
330
5766
100
AcDbEntity
  8
DEFPOINTS
 62
     0
100
AcDbPoint
 10
52981.49782581067
 20
-81151.95337969009
 30
0.0
  0
POINT
  5
5772
330
5766
100
AcDbEntity
  8
DEFPOINTS
 62
     0
100
AcDbPoint
 10
52981.49782581067
 20
-81153.50762788386
 30
0.0
  0
ENDBLK
  5
5773
330
5766
100
AcDbEntity
  8
0
 48
5.0
100
AcDbBlockEnd
  0
BLOCK
  5
5775
330
5774
100
AcDbEntity
  8
0
 48
5.0
100
AcDbBlockBegin
  2
*D56
 70
     1
 10
0.0
 20
0.0
 30
0.0
  3
*D56
  1

  0
LINE
  5
5776
330
5774
100
AcDbEntity
  8
0
  6
Continuous
 62
     3
370
     9
100
AcDbLine
 10
52982.76553981066
 20
-81151.95337969009
 30
0.0
 11
52982.76553981066
 21
-81156.55159078935
 31
0.0
  0
LINE
  5
5777
330
5774
100
AcDbEntity
  8
0
  6
Continuous
 62
     3
370
     9
100
AcDbLine
 10
52995.75763981066
 20
-81151.95337969009
 30
0.0
 11
52995.75763981066
 21
-81156.55159078935
 31
0.0
  0
LINE
  5
5778
330
5774
100
AcDbEntity
  8
0
  6
Continuous
 62
     3
370
     9
100
AcDbLine
 10
52967.76553981066
 20
-81153.55159078934
 30
0.0
 11
52952.76553981066
 21
-81153.55159078934
 31
0.0
  0
LINE
  5
5779
330
5774
100
AcDbEntity
  8
0
  6
Continuous
 62
     3
370
     9
100
AcDbLine
 10
53010.75763981065
 20
-81153.55159078934
 30
0.0
 11
53025.75763981066
 21
-81153.55159078934
 31
0.0
  0
LINE
  5
577A
330
5774
100
AcDbEntity
  8
0
  6
Continuous
 62
     3
370
     9
100
AcDbLine
 10
52982.76553981066
 20
-81153.55159078934
 30
0.0
 11
52995.75763981066
 21
-81153.55159078934
 31
0.0
  0
SOLID
  5
577B
330
5774
100
AcDbEntity
  8
0
 62
     3
100
AcDbTrace
 10
52967.76553981066
 20
-81151.05159078934
 30
0.0
 11
52967.76553981066
 21
-81156.05159078935
 31
0.0
 12
52982.76553981066
 22
-81153.55159078934
 32
0.0
 13
52982.76553981066
 23
-81153.55159078934
 33
0.0
  0
SOLID
  5
577C
330
5774
100
AcDbEntity
  8
0
 62
     3
100
AcDbTrace
 10
53010.75763981065
 20
-81151.05159078934
 30
0.0
 11
53010.75763981065
 21
-81156.05159078935
 31
0.0
 12
52995.75763981066
 22
-81153.55159078934
 32
0.0
 13
52995.75763981066
 23
-81153.55159078934
 33
0.0
  0
MTEXT
  5
577D
330
5774
100
AcDbEntity
  8
0
 62
     3
370
    -3
100
AcDbMText
 10
52989.26158981068
 20
-81153.55159078934
 30
0.0
 40
18.0
 41
0.0
 71
     5
 72
     1
  1
1/2"
  7
Roman
 73
     1
 44
1.0
1001
ACAD
1000
MTEXTBEGIN
1070
    73
1070
     1
1070
    44
1040
1.0
1070
    74
1070
     0
1000
MTEXTEND
  0
POINT
  5
577E
330
5774
100
AcDbEntity
  8
DEFPOINTS
 62
     0
100
AcDbPoint
 10
52982.76553981066
 20
-81151.95337969009
 30
0.0
  0
POINT
  5
577F
330
5774
100
AcDbEntity
  8
DEFPOINTS
 62
     0
100
AcDbPoint
 10
52995.75763981066
 20
-81151.95337969009
 30
0.0
  0
POINT
  5
5780
330
5774
100
AcDbEntity
  8
DEFPOINTS
 62
     0
100
AcDbPoint
 10
52995.75763981066
 20
-81153.55159078934
 30
0.0
  0
ENDBLK
  5
5781
330
5774
100
AcDbEntity
  8
0
 48
5.0
100
AcDbBlockEnd
  0
BLOCK
  5
5783
330
5782
100
AcDbEntity
  8
0
 48
5.0
100
AcDbBlockBegin
  2
*D57
 70
     1
 10
0.0
 20
0.0
 30
0.0
  3
*D57
  1

  0
LINE
  5
5784
330
5782
100
AcDbEntity
  8
标注
  6
Continuous
 62
     3
 48
5.0
370
     9
100
AcDbLine
 10
52997.72220281066
 20
-81133.37073969008
 30
0.0
 11
53002.64911776102
 21
-81133.37073969008
 31
0.0
  0
LINE
  5
5785
330
5782
100
AcDbEntity
  8
标注
  6
Continuous
 62
     3
 48
5.0
370
     9
100
AcDbLine
 10
52997.72220281066
 20
-81149.90613969007
 30
0.0
 11
53002.64911776102
 21
-81149.90613969007
 31
0.0
  0
LINE
  5
5786
330
5782
100
AcDbEntity
  8
标注
  6
Continuous
 62
     3
 48
5.0
370
     9
100
AcDbLine
 10
52999.64911776103
 20
-81118.37073969008
 30
0.0
 11
52999.64911776103
 21
-81103.37073969008
 31
0.0
  0
LINE
  5
5787
330
5782
100
AcDbEntity
  8
标注
  6
Continuous
 62
     3
 48
5.0
370
     9
100
AcDbLine
 10
52999.64911776103
 20
-81164.90613969007
 30
0.0
 11
52999.64911776103
 21
-81179.90613969007
 31
0.0
  0
LINE
  5
5788
330
5782
100
AcDbEntity
  8
标注
  6
Continuous
 62
     3
 48
5.0
370
     9
100
AcDbLine
 10
52999.64911776103
 20
-81133.37073969008
 30
0.0
 11
52999.64911776103
 21
-81149.90613969007
 31
0.0
  0
SOLID
  5
5789
330
5782
100
AcDbEntity
  8
标注
 62
     3
 48
5.0
100
AcDbTrace
 10
52997.14911776104
 20
-81118.37073969008
 30
0.0
 11
53002.14911776103
 21
-81118.37073969008
 31
0.0
 12
52999.64911776103
 22
-81133.37073969008
 32
0.0
 13
52999.64911776103
 23
-81133.37073969008
 33
0.0
  0
SOLID
  5
578A
330
5782
100
AcDbEntity
  8
标注
 62
     3
 48
5.0
100
AcDbTrace
 10
52997.14911776104
 20
-81164.90613969007
 30
0.0
 11
53002.14911776103
 21
-81164.90613969007
 31
0.0
 12
52999.64911776103
 22
-81149.90613969007
 32
0.0
 13
52999.64911776103
 23
-81149.90613969007
 33
0.0
  0
MTEXT
  5
578B
330
5782
100
AcDbEntity
  8
标注
 62
     3
 48
5.0
100
AcDbMText
 10
52999.64911776103
 20
-81141.63843969006
 30
0.0
 40
18.0
 41
0.0
 71
     5
 72
     1
  1
5/8"
  7
Roman
 11
0.0000000000000001
 21
1.0
 31
0.0
 73
     1
 44
1.0
1001
ACAD
1000
MTEXTBEGIN
1070
    73
1070
     1
1070
    44
1040
1.0
1070
    74
1070
     0
1000
MTEXTEND
  0
POINT
  5
578C
330
5782
100
AcDbEntity
  8
DEFPOINTS
 62
     0
 48
5.0
100
AcDbPoint
 10
52997.72220281066
 20
-81133.37073969008
 30
0.0
  0
POINT
  5
578D
330
5782
100
AcDbEntity
  8
DEFPOINTS
 62
     0
 48
5.0
100
AcDbPoint
 10
52997.72220281066
 20
-81149.90613969007
 30
0.0
  0
POINT
  5
578E
330
5782
100
AcDbEntity
  8
DEFPOINTS
 62
     0
 48
5.0
100
AcDbPoint
 10
52999.64911776103
 20
-81149.90613969007
 30
0.0
  0
ENDBLK
  5
578F
330
5782
100
AcDbEntity
  8
0
 48
5.0
100
AcDbBlockEnd
  0
BLOCK
  5
5791
330
5790
100
AcDbEntity
  8
0
 48
5.0
100
AcDbBlockBegin
  2
*D58
 70
     1
 10
0.0
 20
0.0
 30
0.0
  3
*D58
  1

  0
LINE
  5
5792
330
5790
100
AcDbEntity
  8
标注
  6
Continuous
 62
     3
 48
5.0
370
     9
100
AcDbLine
 10
52973.62382581066
 20
-81131.16601969007
 30
0.0
 11
52959.54658226149
 21
-81131.16601969007
 31
0.0
  0
LINE
  5
5793
330
5790
100
AcDbEntity
  8
标注
  6
Continuous
 62
     3
 48
5.0
370
     9
100
AcDbLine
 10
52973.62382581066
 20
-81149.90613969007
 30
0.0
 11
52959.54658226149
 21
-81149.90613969007
 31
0.0
  0
LINE
  5
5794
330
5790
100
AcDbEntity
  8
标注
  6
Continuous
 62
     3
 48
5.0
370
     9
100
AcDbLine
 10
52962.54658226148
 20
-81116.16601969007
 30
0.0
 11
52962.54658226148
 21
-81101.16601969007
 31
0.0
  0
LINE
  5
5795
330
5790
100
AcDbEntity
  8
标注
  6
Continuous
 62
     3
 48
5.0
370
     9
100
AcDbLine
 10
52962.54658226148
 20
-81164.90613969007
 30
0.0
 11
52962.54658226148
 21
-81179.90613969007
 31
0.0
  0
LINE
  5
5796
330
5790
100
AcDbEntity
  8
标注
  6
Continuous
 62
     3
 48
5.0
370
     9
100
AcDbLine
 10
52962.54658226148
 20
-81131.16601969007
 30
0.0
 11
52962.54658226148
 21
-81149.90613969007
 31
0.0
  0
SOLID
  5
5797
330
5790
100
AcDbEntity
  8
标注
 62
     3
 48
5.0
100
AcDbTrace
 10
52960.04658226149
 20
-81116.16601969007
 30
0.0
 11
52965.04658226147
 21
-81116.16601969007
 31
0.0
 12
52962.54658226148
 22
-81131.16601969007
 32
0.0
 13
52962.54658226148
 23
-81131.16601969007
 33
0.0
  0
SOLID
  5
5798
330
5790
100
AcDbEntity
  8
标注
 62
     3
 48
5.0
100
AcDbTrace
 10
52960.04658226149
 20
-81164.90613969007
 30
0.0
 11
52965.04658226147
 21
-81164.90613969007
 31
0.0
 12
52962.54658226148
 22
-81149.90613969007
 32
0.0
 13
52962.54658226148
 23
-81149.90613969007
 33
0.0
  0
MTEXT
  5
5799
330
5790
100
AcDbEntity
  8
标注
 62
     3
 48
5.0
100
AcDbMText
 10
52962.54658226148
 20
-81204.73015060413
 30
0.0
 40
18.0
 41
0.0
 71
     5
 72
     1
  1
3/4"
  7
Roman
 11
0.0000000000000001
 21
1.0
 31
0.0
 73
     1
 44
1.0
1001
ACAD
1000
MTEXTBEGIN
1070
    73
1070
     1
1070
    44
1040
1.0
1070
    74
1070
     0
1000
MTEXTEND
  0
POINT
  5
579A
330
5790
100
AcDbEntity
  8
DEFPOINTS
 62
     0
 48
5.0
100
AcDbPoint
 10
52973.62382581066
 20
-81131.16601969007
 30
0.0
  0
POINT
  5
579B
330
5790
100
AcDbEntity
  8
DEFPOINTS
 62
     0
 48
5.0
100
AcDbPoint
 10
52973.62382581066
 20
-81149.90613969007
 30
0.0
  0
POINT
  5
579C
330
5790
100
AcDbEntity
  8
DEFPOINTS
 62
     0
 48
5.0
100
AcDbPoint
 10
52962.54658226148
 20
-81149.90613969007
 30
0.0
  0
ENDBLK
  5
579D
330
5790
100
AcDbEntity
  8
0
 48
5.0
100
AcDbBlockEnd
  0
BLOCK
  5
579F
330
579E
100
AcDbEntity
  8
0
 48
5.0
100
AcDbBlockBegin
  2
*D59
 70
     1
 10
0.0
 20
0.0
 30
0.0
  3
*D59
  1

  0
LINE
  5
57A0
330
579E
100
AcDbEntity
  8
标注
  6
Continuous
 62
     3
 48
5.0
370
     9
100
AcDbLine
 10
52964.17896281066
 20
-81150.18172969008
 30
0.0
 11
52964.17896281066
 21
-81158.56778300534
 31
0.0
  0
LINE
  5
57A1
330
579E
100
AcDbEntity
  8
标注
  6
Continuous
 62
     3
 48
5.0
370
     9
100
AcDbLine
 10
52997.32850281066
 20
-81150.18172969008
 30
0.0
 11
52997.32850281066
 21
-81158.56778300534
 31
0.0
  0
LINE
  5
57A2
330
579E
100
AcDbEntity
  8
标注
  6
Continuous
 62
     3
 48
5.0
370
     9
100
AcDbLine
 10
52949.17896281067
 20
-81155.56778300534
 30
0.0
 11
52934.17896281066
 21
-81155.56778300534
 31
0.0
  0
LINE
  5
57A3
330
579E
100
AcDbEntity
  8
标注
  6
Continuous
 62
     3
 48
5.0
370
     9
100
AcDbLine
 10
53012.32850281066
 20
-81155.56778300534
 30
0.0
 11
53027.32850281066
 21
-81155.56778300534
 31
0.0
  0
LINE
  5
57A4
330
579E
100
AcDbEntity
  8
标注
  6
Continuous
 62
     3
 48
5.0
370
     9
100
AcDbLine
 10
52964.17896281066
 20
-81155.56778300534
 30
0.0
 11
52997.32850281066
 21
-81155.56778300534
 31
0.0
  0
SOLID
  5
57A5
330
579E
100
AcDbEntity
  8
标注
 62
     3
 48
5.0
100
AcDbTrace
 10
52949.17896281067
 20
-81153.06778300535
 30
0.0
 11
52949.17896281067
 21
-81158.06778300534
 31
0.0
 12
52964.17896281066
 22
-81155.56778300534
 32
0.0
 13
52964.17896281066
 23
-81155.56778300534
 33
0.0
  0
SOLID
  5
57A6
330
579E
100
AcDbEntity
  8
标注
 62
     3
 48
5.0
100
AcDbTrace
 10
53012.32850281066
 20
-81153.06778300535
 30
0.0
 11
53012.32850281066
 21
-81158.06778300534
 31
0.0
 12
52997.32850281066
 22
-81155.56778300534
 32
0.0
 13
52997.32850281066
 23
-81155.56778300534
 33
0.0
  0
MTEXT
  5
57A7
330
579E
100
AcDbEntity
  8
标注
 62
     3
 48
5.0
100
AcDbMText
 10
53061.79712491162
 20
-81155.56778300534
 30
0.0
 40
18.0
 41
0.0
 71
     5
 72
     1
  1
1 1/4"
  7
Roman
 73
     1
 44
1.0
1001
ACAD
1000
MTEXTBEGIN
1070
    73
1070
     1
1070
    44
1040
1.0
1070
    74
1070
     0
1000
MTEXTEND
  0
POINT
  5
57A8
330
579E
100
AcDbEntity
  8
DEFPOINTS
 62
     0
 48
5.0
100
AcDbPoint
 10
52964.17896281066
 20
-81150.18172969008
 30
0.0
  0
POINT
  5
57A9
330
579E
100
AcDbEntity
  8
DEFPOINTS
 62
     0
 48
5.0
100
AcDbPoint
 10
52997.32850281066
 20
-81150.18172969008
 30
0.0
  0
POINT
  5
57AA
330
579E
100
AcDbEntity
  8
DEFPOINTS
 62
     0
 48
5.0
100
AcDbPoint
 10
52997.32850281066
 20
-81155.56778300534
 30
0.0
  0
ENDBLK
  5
57AB
330
579E
100
AcDbEntity
  8
0
 48
5.0
100
AcDbBlockEnd
  0
BLOCK
  5
57AD
330
57AC
100
AcDbEntity
  8
0
 48
5.0
100
AcDbBlockBegin
  2
*D60
 70
     1
 10
0.0
 20
0.0
 30
0.0
  3
*D60
  1

  0
LINE
  5
57AE
330
57AC
100
AcDbEntity
  8
标注
  6
Continuous
 62
     3
 48
5.0
370
     9
100
AcDbLine
 10
52997.11425620993
 20
-81115.14508459789
 30
0.0
 11
53001.61137445283
 21
-81115.14508459789
 31
0.0
  0
LINE
  5
57AF
330
57AC
100
AcDbEntity
  8
标注
  6
Continuous
 62
     3
 48
5.0
370
     9
100
AcDbLine
 10
52997.11425620993
 20
-81119.12932859789
 30
0.0
 11
53001.61137445283
 21
-81119.12932859789
 31
0.0
  0
LINE
  5
57B0
330
57AC
100
AcDbEntity
  8
标注
  6
Continuous
 62
     3
 48
5.0
370
     9
100
AcDbLine
 10
52998.61137445283
 20
-81100.14508459789
 30
0.0
 11
52998.61137445283
 21
-81085.14508459789
 31
0.0
  0
LINE
  5
57B1
330
57AC
100
AcDbEntity
  8
标注
  6
Continuous
 62
     3
 48
5.0
370
     9
100
AcDbLine
 10
52998.61137445283
 20
-81134.12932859789
 30
0.0
 11
52998.61137445283
 21
-81149.12932859789
 31
0.0
  0
LINE
  5
57B2
330
57AC
100
AcDbEntity
  8
标注
  6
Continuous
 62
     3
 48
5.0
370
     9
100
AcDbLine
 10
52998.61137445283
 20
-81115.14508459789
 30
0.0
 11
52998.61137445283
 21
-81119.12932859789
 31
0.0
  0
SOLID
  5
57B3
330
57AC
100
AcDbEntity
  8
标注
 62
     3
 48
5.0
100
AcDbTrace
 10
52996.11137445283
 20
-81100.14508459789
 30
0.0
 11
53001.11137445283
 21
-81100.14508459789
 31
0.0
 12
52998.61137445283
 22
-81115.14508459789
 32
0.0
 13
52998.61137445283
 23
-81115.14508459789
 33
0.0
  0
SOLID
  5
57B4
330
57AC
100
AcDbEntity
  8
标注
 62
     3
 48
5.0
100
AcDbTrace
 10
52996.11137445283
 20
-81134.12932859789
 30
0.0
 11
53001.11137445283
 21
-81134.12932859789
 31
0.0
 12
52998.61137445283
 22
-81119.12932859789
 32
0.0
 13
52998.61137445283
 23
-81119.12932859789
 33
0.0
  0
MTEXT
  5
57B5
330
57AC
100
AcDbEntity
  8
标注
 62
     3
 48
5.0
100
AcDbMText
 10
52998.61137445284
 20
-81173.11227539188
 30
0.0
 40
18.0
 41
0.0
 71
     5
 72
     1
  1
1/8"
  7
Roman
 11
0.0000000000000001
 21
1.0
 31
0.0
 73
     1
 44
1.0
1001
ACAD
1000
MTEXTBEGIN
1070
    73
1070
     1
1070
    44
1040
1.0
1070
    74
1070
     0
1000
MTEXTEND
  0
POINT
  5
57B6
330
57AC
100
AcDbEntity
  8
DEFPOINTS
 62
     0
 48
5.0
100
AcDbPoint
 10
52997.11425620993
 20
-81115.14508459789
 30
0.0
  0
POINT
  5
57B7
330
57AC
100
AcDbEntity
  8
DEFPOINTS
 62
     0
 48
5.0
100
AcDbPoint
 10
52997.11425620993
 20
-81119.12932859789
 30
0.0
  0
POINT
  5
57B8
330
57AC
100
AcDbEntity
  8
DEFPOINTS
 62
     0
 48
5.0
100
AcDbPoint
 10
52998.61137445283
 20
-81119.12932859789
 30
0.0
  0
ENDBLK
  5
57B9
330
57AC
100
AcDbEntity
  8
0
 48
5.0
100
AcDbBlockEnd
  0
BLOCK
  5
57BB
330
57BA
100
AcDbEntity
  8
0
 48
5.0
100
AcDbBlockBegin
  2
*D61
 70
     1
 10
0.0
 20
0.0
 30
0.0
  3
*D61
  1

  0
LINE
  5
57BC
330
57BA
100
AcDbEntity
  8
标注
  6
Continuous
 62
     3
 48
5.0
370
     9
100
AcDbLine
 10
52964.39320941139
 20
-81115.14508459789
 30
0.0
 11
52960.01615854033
 21
-81115.14508459789
 31
0.0
  0
LINE
  5
57BD
330
57BA
100
AcDbEntity
  8
标注
  6
Continuous
 62
     3
 48
5.0
370
     9
100
AcDbLine
 10
52964.39320941139
 20
-81120.65688459789
 30
0.0
 11
52960.01615854033
 21
-81120.65688459789
 31
0.0
  0
LINE
  5
57BE
330
57BA
100
AcDbEntity
  8
标注
  6
Continuous
 62
     3
 48
5.0
370
     9
100
AcDbLine
 10
52963.01615854034
 20
-81100.14508459789
 30
0.0
 11
52963.01615854034
 21
-81085.14508459789
 31
0.0
  0
LINE
  5
57BF
330
57BA
100
AcDbEntity
  8
标注
  6
Continuous
 62
     3
 48
5.0
370
     9
100
AcDbLine
 10
52963.01615854034
 20
-81135.65688459789
 30
0.0
 11
52963.01615854034
 21
-81150.65688459791
 31
0.0
  0
LINE
  5
57C0
330
57BA
100
AcDbEntity
  8
标注
  6
Continuous
 62
     3
 48
5.0
370
     9
100
AcDbLine
 10
52963.01615854034
 20
-81115.14508459789
 30
0.0
 11
52963.01615854034
 21
-81120.65688459789
 31
0.0
  0
SOLID
  5
57C1
330
57BA
100
AcDbEntity
  8
标注
 62
     3
 48
5.0
100
AcDbTrace
 10
52960.51615854034
 20
-81100.14508459789
 30
0.0
 11
52965.51615854034
 21
-81100.14508459789
 31
0.0
 12
52963.01615854034
 22
-81115.14508459789
 32
0.0
 13
52963.01615854034
 23
-81115.14508459789
 33
0.0
  0
SOLID
  5
57C2
330
57BA
100
AcDbEntity
  8
标注
 62
     3
 48
5.0
100
AcDbTrace
 10
52960.51615854034
 20
-81135.65688459789
 30
0.0
 11
52965.51615854034
 21
-81135.65688459789
 31
0.0
 12
52963.01615854034
 22
-81120.65688459789
 32
0.0
 13
52963.01615854034
 23
-81120.65688459789
 33
0.0
  0
MTEXT
  5
57C3
330
57BA
100
AcDbEntity
  8
标注
 62
     3
 48
5.0
100
AcDbMText
 10
52963.01615854035
 20
-81174.63983139188
 30
0.0
 40
18.0
 41
0.0
 71
     5
 72
     1
  1
1/4"
  7
Roman
 11
0.0000000000000001
 21
1.0
 31
0.0
 73
     1
 44
1.0
1001
ACAD
1000
MTEXTBEGIN
1070
    73
1070
     1
1070
    44
1040
1.0
1070
    74
1070
     0
1000
MTEXTEND
  0
POINT
  5
57C4
330
57BA
100
AcDbEntity
  8
DEFPOINTS
 62
     0
 48
5.0
100
AcDbPoint
 10
52964.39320941139
 20
-81115.14508459789
 30
0.0
  0
POINT
  5
57C5
330
57BA
100
AcDbEntity
  8
DEFPOINTS
 62
     0
 48
5.0
100
AcDbPoint
 10
52964.39320941139
 20
-81120.65688459789
 30
0.0
  0
POINT
  5
57C6
330
57BA
100
AcDbEntity
  8
DEFPOINTS
 62
     0
 48
5.0
100
AcDbPoint
 10
52963.01615854034
 20
-81120.65688459789
 30
0.0
  0
ENDBLK
  5
57C7
330
57BA
100
AcDbEntity
  8
0
 48
5.0
100
AcDbBlockEnd
  0
BLOCK
  5
59F5
330
59F4
100
AcDbEntity
  8
0
100
AcDbBlockBegin
  2
*D62
 70
     1
 10
0.0
 20
0.0
 30
0.0
  3
*D62
  1

  0
LINE
  5
5AE3
330
59F4
100
AcDbEntity
  8
0
  6
Continuous
 62
     3
370
    13
100
AcDbLine
 10
782.1290005103755
 20
167.177344749118
 30
0.0
 11
777.8459646818931
 21
167.177344749118
 31
0.0
  0
LINE
  5
5AE4
330
59F4
100
AcDbEntity
  8
0
  6
Continuous
 62
     3
370
    13
100
AcDbLine
 10
782.1290005103755
 20
145.1301447491171
 30
0.0
 11
777.8459646818931
 21
145.1301447491171
 31
0.0
  0
LINE
  5
5AE5
330
59F4
100
AcDbEntity
  8
0
  6
Continuous
 62
     3
370
    13
100
AcDbLine
 10
778.1659646818933
 20
166.527344749118
 30
0.0
 11
778.1659646818933
 21
158.5493003046731
 31
0.0
  0
LINE
  5
5AE6
330
59F4
100
AcDbEntity
  8
0
  6
Continuous
 62
     3
370
    13
100
AcDbLine
 10
778.1659646818933
 20
145.7801447491171
 30
0.0
 11
778.1659646818933
 21
153.758189193562
 31
0.0
  0
SOLID
  5
5AE7
330
59F4
100
AcDbEntity
  8
0
 62
     3
100
AcDbTrace
 10
778.0576313485599
 20
166.527344749118
 30
0.0
 11
778.2742980152264
 21
166.527344749118
 31
0.0
 12
778.1659646818933
 22
167.177344749118
 32
0.0
 13
778.1659646818933
 23
167.177344749118
 33
0.0
  0
SOLID
  5
5AE8
330
59F4
100
AcDbEntity
  8
0
 62
     3
100
AcDbTrace
 10
778.0576313485599
 20
145.7801447491171
 30
0.0
 11
778.2742980152264
 21
145.7801447491171
 31
0.0
 12
778.1659646818933
 22
145.1301447491171
 32
0.0
 13
778.1659646818933
 23
145.1301447491171
 33
0.0
  0
MTEXT
  5
5AE9
330
59F4
100
AcDbEntity
  8
0
 62
     3
100
AcDbMText
 10
778.1659646818933
 20
156.1537447491176
 30
0.0
 40
0.65
 41
0.0
 71
     5
 72
     1
  1
\A1;22" [0.9"]
 11
0.0000000000000001
 21
1.0
 31
0.0
 73
     1
 44
1.0
1001
ACAD
1000
MTEXTBEGIN
1070
    73
1070
     1
1070
    44
1040
1.0
1070
    74
1070
     0
1000
MTEXTEND
  0
POINT
  5
5AEA
330
59F4
100
AcDbEntity
  8
DEFPOINTS
 62
     0
100
AcDbPoint
 10
783.0090005103754
 20
167.177344749118
 30
0.0
  0
POINT
  5
5AEB
330
59F4
100
AcDbEntity
  8
DEFPOINTS
 62
     0
100
AcDbPoint
 10
783.0090005103754
 20
145.1301447491171
 30
0.0
  0
POINT
  5
5AEC
330
59F4
100
AcDbEntity
  8
DEFPOINTS
 62
     0
100
AcDbPoint
 10
778.1659646818933
 20
145.1301447491171
 30
0.0
  0
ENDBLK
  5
59F6
330
59F4
100
AcDbEntity
  8
0
100
AcDbBlockEnd
  0
BLOCK
  5
5A03
330
5A02
100
AcDbEntity
  8
0
100
AcDbBlockBegin
  2
*D63
 70
     1
 10
0.0
 20
0.0
 30
0.0
  3
*D63
  1

  0
LINE
  5
5AC5
330
5A02
100
AcDbEntity
  8
0
  6
Continuous
 62
     3
370
    13
100
AcDbLine
 10
783.2019135103744
 20
143.8564447491166
 30
0.0
 11
783.2019135103744
 21
142.8621965553429
 31
0.0
  0
LINE
  5
5AC6
330
5A02
100
AcDbEntity
  8
0
  6
Continuous
 62
     3
370
    13
100
AcDbLine
 10
798.949913510374
 20
143.8564447491166
 30
0.0
 11
798.949913510374
 21
142.8621965553429
 31
0.0
  0
LINE
  5
5AC7
330
5A02
100
AcDbEntity
  8
0
  6
Continuous
 62
     3
370
    13
100
AcDbLine
 10
783.8519135103743
 20
143.1821965553429
 30
0.0
 11
789.3484135103742
 21
143.1821965553429
 31
0.0
  0
LINE
  5
5AC8
330
5A02
100
AcDbEntity
  8
0
  6
Continuous
 62
     3
370
    13
100
AcDbLine
 10
798.299913510374
 20
143.1821965553429
 30
0.0
 11
792.8034135103741
 21
143.1821965553429
 31
0.0
  0
SOLID
  5
5AC9
330
5A02
100
AcDbEntity
  8
0
 62
     3
100
AcDbTrace
 10
783.8519135103743
 20
143.2905298886762
 30
0.0
 11
783.8519135103743
 21
143.0738632220096
 31
0.0
 12
783.2019135103744
 22
143.1821965553429
 32
0.0
 13
783.2019135103744
 23
143.1821965553429
 33
0.0
  0
SOLID
  5
5ACA
330
5A02
100
AcDbEntity
  8
0
 62
     3
100
AcDbTrace
 10
798.299913510374
 20
143.2905298886762
 30
0.0
 11
798.299913510374
 21
143.0738632220096
 31
0.0
 12
798.949913510374
 22
143.1821965553429
 32
0.0
 13
798.949913510374
 23
143.1821965553429
 33
0.0
  0
MTEXT
  5
5ACB
330
5A02
100
AcDbEntity
  8
0
 62
     3
100
AcDbMText
 10
791.0759135103743
 20
143.1821965553429
 30
0.0
 40
0.65
 41
0.0
 71
     5
 72
     1
  1
\A1;15 3/4"
 73
     1
 44
1.0
1001
ACAD
1000
MTEXTBEGIN
1070
    73
1070
     1
1070
    44
1040
1.0
1070
    74
1070
     0
1000
MTEXTEND
  0
POINT
  5
5ACC
330
5A02
100
AcDbEntity
  8
DEFPOINTS
 62
     0
100
AcDbPoint
 10
783.2019135103744
 20
144.7364447491166
 30
0.0
  0
POINT
  5
5ACD
330
5A02
100
AcDbEntity
  8
DEFPOINTS
 62
     0
100
AcDbPoint
 10
798.949913510374
 20
144.7364447491166
 30
0.0
  0
POINT
  5
5ACE
330
5A02
100
AcDbEntity
  8
DEFPOINTS
 62
     0
100
AcDbPoint
 10
798.949913510374
 20
143.1821965553429
 30
0.0
  0
ENDBLK
  5
5A04
330
5A02
100
AcDbEntity
  8
0
100
AcDbBlockEnd
  0
BLOCK
  5
5A11
330
5A10
100
AcDbEntity
  8
0
100
AcDbBlockBegin
  2
*D64
 70
     1
 10
0.0
 20
0.0
 30
0.0
  3
*D64
  1

  0
LINE
  5
5ABB
330
5A10
100
AcDbEntity
  8
0
  6
Continuous
 62
     3
370
    13
100
AcDbLine
 10
800.2176275103755
 20
143.8564447491166
 30
0.0
 11
800.2176275103755
 21
142.8182336498539
 31
0.0
  0
LINE
  5
5ABC
330
5A10
100
AcDbEntity
  8
0
  6
Continuous
 62
     3
370
    13
100
AcDbLine
 10
813.2097275103713
 20
143.8564447491166
 30
0.0
 11
813.2097275103713
 21
142.8182336498539
 31
0.0
  0
LINE
  5
5ABD
330
5A10
100
AcDbEntity
  8
0
  6
Continuous
 62
     3
370
    13
100
AcDbLine
 10
800.8676275103752
 20
143.1382336498538
 30
0.0
 11
805.9106219548178
 21
143.1382336498538
 31
0.0
  0
LINE
  5
5ABE
330
5A10
100
AcDbEntity
  8
0
  6
Continuous
 62
     3
370
    13
100
AcDbLine
 10
812.5597275103711
 20
143.1382336498538
 30
0.0
 11
807.516733065929
 21
143.1382336498538
 31
0.0
  0
MTEXT
  5
5ABF
330
5A10
100
AcDbEntity
  8
0
 62
     3
100
AcDbMText
 10
806.7136775103731
 20
143.1382336498538
 30
0.0
 40
0.65
 41
0.0
 71
     5
 72
     1
  1
\A1;13"
 73
     1
 44
1.0
1001
ACAD
1000
MTEXTBEGIN
1070
    73
1070
     1
1070
    44
1040
1.0
1070
    74
1070
     0
1000
MTEXTEND
  0
SOLID
  5
5AC0
330
5A10
100
AcDbEntity
  8
0
 62
     3
100
AcDbTrace
 10
800.8676275103752
 20
143.2465669831872
 30
0.0
 11
800.8676275103752
 21
143.0299003165205
 31
0.0
 12
800.2176275103755
 22
143.1382336498538
 32
0.0
 13
800.2176275103755
 23
143.1382336498538
 33
0.0
  0
SOLID
  5
5AC1
330
5A10
100
AcDbEntity
  8
0
 62
     3
100
AcDbTrace
 10
812.5597275103711
 20
143.2465669831872
 30
0.0
 11
812.5597275103711
 21
143.0299003165205
 31
0.0
 12
813.2097275103713
 22
143.1382336498538
 32
0.0
 13
813.2097275103713
 23
143.1382336498538
 33
0.0
  0
POINT
  5
5AC2
330
5A10
100
AcDbEntity
  8
DEFPOINTS
 62
     0
100
AcDbPoint
 10
800.2176275103755
 20
144.7364447491166
 30
0.0
  0
POINT
  5
5AC3
330
5A10
100
AcDbEntity
  8
DEFPOINTS
 62
     0
100
AcDbPoint
 10
813.2097275103713
 20
144.7364447491166
 30
0.0
  0
POINT
  5
5AC4
330
5A10
100
AcDbEntity
  8
DEFPOINTS
 62
     0
100
AcDbPoint
 10
813.2097275103713
 20
143.1382336498538
 30
0.0
  0
ENDBLK
  5
5A12
330
5A10
100
AcDbEntity
  8
0
100
AcDbBlockEnd
  0
BLOCK
  5
5A1F
330
5A1E
100
AcDbEntity
  8
0
100
AcDbBlockBegin
  2
*D65
 70
     1
 10
0.0
 20
0.0
 30
0.0
  3
*D65
  1

  0
LINE
  5
5AF7
330
5A1E
100
AcDbEntity
  8
0
  6
Continuous
 62
     3
370
    13
100
AcDbLine
 10
816.0542905103726
 20
163.3190847491244
 30
0.0
 11
817.4212054607398
 21
163.3190847491244
 31
0.0
  0
LINE
  5
5AF8
330
5A1E
100
AcDbEntity
  8
0
  6
Continuous
 62
     3
370
    13
100
AcDbLine
 10
816.0542905103726
 20
146.7836847491164
 30
0.0
 11
817.4212054607398
 21
146.7836847491164
 31
0.0
  0
LINE
  5
5AF9
330
5A1E
100
AcDbEntity
  8
0
  6
Continuous
 62
     3
370
    13
100
AcDbLine
 10
817.1012054607396
 20
162.6690847491244
 30
0.0
 11
817.1012054607396
 21
156.7788847491204
 31
0.0
  0
LINE
  5
5AFA
330
5A1E
100
AcDbEntity
  8
0
  6
Continuous
 62
     3
370
    13
100
AcDbLine
 10
817.1012054607396
 20
147.4336847491164
 30
0.0
 11
817.1012054607396
 21
153.3238847491204
 31
0.0
  0
MTEXT
  5
5AFB
330
5A1E
100
AcDbEntity
  8
0
 62
     3
100
AcDbMText
 10
817.1012054607396
 20
155.0513847491205
 30
0.0
 40
0.65
 41
0.0
 71
     5
 72
     1
  1
\A1;16 1/2"
 11
0.0000000000000001
 21
1.0
 31
0.0
 73
     1
 44
1.0
1001
ACAD
1000
MTEXTBEGIN
1070
    73
1070
     1
1070
    44
1040
1.0
1070
    74
1070
     0
1000
MTEXTEND
  0
SOLID
  5
5AFC
330
5A1E
100
AcDbEntity
  8
0
 62
     3
100
AcDbTrace
 10
816.9928721274063
 20
162.6690847491244
 30
0.0
 11
817.209538794073
 21
162.6690847491244
 31
0.0
 12
817.1012054607396
 22
163.3190847491244
 32
0.0
 13
817.1012054607396
 23
163.3190847491244
 33
0.0
  0
SOLID
  5
5AFD
330
5A1E
100
AcDbEntity
  8
0
 62
     3
100
AcDbTrace
 10
816.9928721274063
 20
147.4336847491164
 30
0.0
 11
817.209538794073
 21
147.4336847491164
 31
0.0
 12
817.1012054607396
 22
146.7836847491164
 32
0.0
 13
817.1012054607396
 23
146.7836847491164
 33
0.0
  0
POINT
  5
5AFE
330
5A1E
100
AcDbEntity
  8
DEFPOINTS
 62
     0
100
AcDbPoint
 10
815.1742905103727
 20
163.3190847491244
 30
0.0
  0
POINT
  5
5AFF
330
5A1E
100
AcDbEntity
  8
DEFPOINTS
 62
     0
100
AcDbPoint
 10
815.1742905103727
 20
146.7836847491164
 30
0.0
  0
POINT
  5
5B00
330
5A1E
100
AcDbEntity
  8
DEFPOINTS
 62
     0
100
AcDbPoint
 10
817.1012054607396
 20
146.7836847491164
 30
0.0
  0
ENDBLK
  5
5A20
330
5A1E
100
AcDbEntity
  8
0
100
AcDbBlockEnd
  0
BLOCK
  5
5A2D
330
5A2C
100
AcDbEntity
  8
0
100
AcDbBlockBegin
  2
*D66
 70
     1
 10
0.0
 20
0.0
 30
0.0
  3
*D66
  1

  0
LINE
  5
5AD9
330
5A2C
100
AcDbEntity
  8
0
  6
Continuous
 62
     3
370
    13
100
AcDbLine
 10
790.1959135103778
 20
165.5238047491186
 30
0.0
 11
779.6786699611815
 21
165.5238047491186
 31
0.0
  0
LINE
  5
5ADA
330
5A2C
100
AcDbEntity
  8
0
  6
Continuous
 62
     3
370
    13
100
AcDbLine
 10
790.1959135103778
 20
146.7836847491164
 30
0.0
 11
779.6786699611815
 21
146.7836847491164
 31
0.0
  0
LINE
  5
5ADB
330
5A2C
100
AcDbEntity
  8
0
  6
Continuous
 62
     3
370
    13
100
AcDbLine
 10
779.9986699611817
 20
164.8738047491186
 30
0.0
 11
779.9986699611817
 21
157.8812447491175
 31
0.0
  0
LINE
  5
5ADC
330
5A2C
100
AcDbEntity
  8
0
  6
Continuous
 62
     3
370
    13
100
AcDbLine
 10
779.9986699611817
 20
147.4336847491164
 30
0.0
 11
779.9986699611817
 21
154.4262447491175
 31
0.0
  0
SOLID
  5
5ADD
330
5A2C
100
AcDbEntity
  8
0
 62
     3
100
AcDbTrace
 10
779.8903366278482
 20
164.8738047491186
 30
0.0
 11
780.1070032945149
 21
164.8738047491186
 31
0.0
 12
779.9986699611817
 22
165.5238047491186
 32
0.0
 13
779.9986699611817
 23
165.5238047491186
 33
0.0
  0
SOLID
  5
5ADE
330
5A2C
100
AcDbEntity
  8
0
 62
     3
100
AcDbTrace
 10
779.8903366278482
 20
147.4336847491164
 30
0.0
 11
780.1070032945149
 21
147.4336847491164
 31
0.0
 12
779.9986699611817
 22
146.7836847491164
 32
0.0
 13
779.9986699611817
 23
146.7836847491164
 33
0.0
  0
MTEXT
  5
5ADF
330
5A2C
100
AcDbEntity
  8
0
 62
     3
100
AcDbMText
 10
779.9986699611817
 20
156.1537447491176
 30
0.0
 40
0.65
 41
0.0
 71
     5
 72
     1
  1
\A1;18 3/4"
 11
0.0000000000000001
 21
1.0
 31
0.0
 73
     1
 44
1.0
1001
ACAD
1000
MTEXTBEGIN
1070
    73
1070
     1
1070
    44
1040
1.0
1070
    74
1070
     0
1000
MTEXTEND
  0
POINT
  5
5AE0
330
5A2C
100
AcDbEntity
  8
DEFPOINTS
 62
     0
100
AcDbPoint
 10
791.0759135103778
 20
165.5238047491186
 30
0.0
  0
POINT
  5
5AE1
330
5A2C
100
AcDbEntity
  8
DEFPOINTS
 62
     0
100
AcDbPoint
 10
791.0759135103778
 20
146.7836847491164
 30
0.0
  0
POINT
  5
5AE2
330
5A2C
100
AcDbEntity
  8
DEFPOINTS
 62
     0
100
AcDbPoint
 10
779.9986699611817
 20
146.7836847491164
 30
0.0
  0
ENDBLK
  5
5A2E
330
5A2C
100
AcDbEntity
  8
0
100
AcDbBlockEnd
  0
BLOCK
  5
5A3B
330
5A3A
100
AcDbEntity
  8
0
100
AcDbBlockBegin
  2
*D67
 70
     1
 10
0.0
 20
0.0
 30
0.0
  3
*D67
  1

  0
LINE
  5
5AB1
330
5A3A
100
AcDbEntity
  8
0
  6
Continuous
 62
     3
370
    13
100
AcDbLine
 10
781.6310505103737
 20
145.6280947491261
 30
0.0
 11
781.6310505103737
 21
140.8020414338496
 31
0.0
  0
LINE
  5
5AB2
330
5A3A
100
AcDbEntity
  8
0
  6
Continuous
 62
     3
370
    13
100
AcDbLine
 10
814.7805905103721
 20
145.6280947491261
 30
0.0
 11
814.7805905103721
 21
140.8020414338496
 31
0.0
  0
LINE
  5
5AB3
330
5A3A
100
AcDbEntity
  8
0
  6
Continuous
 62
     3
370
    13
100
AcDbLine
 10
782.2810505103737
 20
141.1220414338497
 30
0.0
 11
796.453042732595
 21
141.1220414338497
 31
0.0
  0
LINE
  5
5AB4
330
5A3A
100
AcDbEntity
  8
0
  6
Continuous
 62
     3
370
    13
100
AcDbLine
 10
814.130590510372
 20
141.1220414338497
 30
0.0
 11
799.9585982881506
 21
141.1220414338497
 31
0.0
  0
SOLID
  5
5AB5
330
5A3A
100
AcDbEntity
  8
0
 62
     3
100
AcDbTrace
 10
782.2810505103737
 20
141.230374767183
 30
0.0
 11
782.2810505103737
 21
141.0137081005164
 31
0.0
 12
781.6310505103737
 22
141.1220414338497
 32
0.0
 13
781.6310505103737
 23
141.1220414338497
 33
0.0
  0
SOLID
  5
5AB6
330
5A3A
100
AcDbEntity
  8
0
 62
     3
100
AcDbTrace
 10
814.130590510372
 20
141.230374767183
 30
0.0
 11
814.130590510372
 21
141.0137081005164
 31
0.0
 12
814.7805905103721
 22
141.1220414338497
 32
0.0
 13
814.7805905103721
 23
141.1220414338497
 33
0.0
  0
MTEXT
  5
5AB7
330
5A3A
100
AcDbEntity
  8
0
 62
     3
100
AcDbMText
 10
798.2058205103727
 20
141.1220414338497
 30
0.0
 40
0.65
 41
0.0
 71
     5
 72
     1
  1
\A1;33 1/8"
 73
     1
 44
1.0
1001
ACAD
1000
MTEXTBEGIN
1070
    73
1070
     1
1070
    44
1040
1.0
1070
    74
1070
     0
1000
MTEXTEND
  0
POINT
  5
5AB8
330
5A3A
100
AcDbEntity
  8
DEFPOINTS
 62
     0
100
AcDbPoint
 10
781.6310505103737
 20
146.5080947491262
 30
0.0
  0
POINT
  5
5AB9
330
5A3A
100
AcDbEntity
  8
DEFPOINTS
 62
     0
100
AcDbPoint
 10
814.7805905103721
 20
146.5080947491262
 30
0.0
  0
POINT
  5
5ABA
330
5A3A
100
AcDbEntity
  8
DEFPOINTS
 62
     0
100
AcDbPoint
 10
814.7805905103721
 20
141.1220414338497
 30
0.0
  0
ENDBLK
  5
5A3C
330
5A3A
100
AcDbEntity
  8
0
100
AcDbBlockEnd
  0
BLOCK
  5
5A49
330
5A48
100
AcDbEntity
  8
0
100
AcDbBlockBegin
  2
*D68
 70
     1
 10
0.0
 20
0.0
 30
0.0
  3
*D68
  1

  0
LINE
  5
5AED
330
5A48
100
AcDbEntity
  8
0
  6
Continuous
 62
     3
370
    13
100
AcDbLine
 10
815.4463439096366
 20
181.5447398413128
 30
0.0
 11
816.3834621525367
 21
181.5447398413128
 31
0.0
  0
LINE
  5
5AEE
330
5A48
100
AcDbEntity
  8
0
  6
Continuous
 62
     3
370
    13
100
AcDbLine
 10
815.4463439096366
 20
177.5604958413062
 30
0.0
 11
816.3834621525367
 21
177.5604958413062
 31
0.0
  0
LINE
  5
5AEF
330
5A48
100
AcDbEntity
  8
0
  6
Continuous
 62
     3
370
    13
100
AcDbLine
 10
816.0634621525366
 20
180.8947398413127
 30
0.0
 11
816.0634621525366
 21
180.160673396865
 31
0.0
  0
LINE
  5
5AF0
330
5A48
100
AcDbEntity
  8
0
  6
Continuous
 62
     3
370
    13
100
AcDbLine
 10
816.0634621525366
 20
178.2104958413062
 30
0.0
 11
816.0634621525366
 21
178.9445622857539
 31
0.0
  0
SOLID
  5
5AF1
330
5A48
100
AcDbEntity
  8
0
 62
     3
100
AcDbTrace
 10
815.9551288192032
 20
180.8947398413127
 30
0.0
 11
816.1717954858698
 21
180.8947398413127
 31
0.0
 12
816.0634621525366
 22
181.5447398413128
 32
0.0
 13
816.0634621525366
 23
181.5447398413128
 33
0.0
  0
SOLID
  5
5AF2
330
5A48
100
AcDbEntity
  8
0
 62
     3
100
AcDbTrace
 10
815.9551288192032
 20
178.2104958413062
 30
0.0
 11
816.1717954858698
 21
178.2104958413062
 31
0.0
 12
816.0634621525366
 22
177.5604958413062
 32
0.0
 13
816.0634621525366
 23
177.5604958413062
 33
0.0
  0
MTEXT
  5
5AF3
330
5A48
100
AcDbEntity
  8
0
 62
     3
100
AcDbMText
 10
816.0634621525366
 20
179.5526178413096
 30
0.0
 40
0.65
 41
0.0
 71
     5
 72
     1
  1
\A1;4"
 11
0.0000000000000001
 21
1.0
 31
0.0
 73
     1
 44
1.0
1001
ACAD
1000
MTEXTBEGIN
1070
    73
1070
     1
1070
    44
1040
1.0
1070
    74
1070
     0
1000
MTEXTEND
  0
POINT
  5
5AF4
330
5A48
100
AcDbEntity
  8
DEFPOINTS
 62
     0
100
AcDbPoint
 10
814.5663439096367
 20
181.5447398413128
 30
0.0
  0
POINT
  5
5AF5
330
5A48
100
AcDbEntity
  8
DEFPOINTS
 62
     0
100
AcDbPoint
 10
814.5663439096367
 20
177.5604958413062
 30
0.0
  0
POINT
  5
5AF6
330
5A48
100
AcDbEntity
  8
DEFPOINTS
 62
     0
100
AcDbPoint
 10
816.0634621525366
 20
177.5604958413062
 30
0.0
  0
ENDBLK
  5
5A4A
330
5A48
100
AcDbEntity
  8
0
100
AcDbBlockEnd
  0
BLOCK
  5
5A57
330
5A56
100
AcDbEntity
  8
0
100
AcDbBlockBegin
  2
*D69
 70
     1
 10
0.0
 20
0.0
 30
0.0
  3
*D69
  1

  0
LINE
  5
5ACF
330
5A56
100
AcDbEntity
  8
0
  6
Continuous
 62
     3
370
    13
100
AcDbLine
 10
780.965297111109
 20
181.5447398413128
 30
0.0
 11
780.1482462400429
 21
181.5447398413128
 31
0.0
  0
LINE
  5
5AD0
330
5A56
100
AcDbEntity
  8
0
  6
Continuous
 62
     3
370
    13
100
AcDbLine
 10
780.965297111109
 20
176.0329398413053
 30
0.0
 11
780.1482462400429
 21
176.0329398413053
 31
0.0
  0
LINE
  5
5AD1
330
5A56
100
AcDbEntity
  8
0
  6
Continuous
 62
     3
370
    13
100
AcDbLine
 10
780.468246240043
 20
180.8947398413127
 30
0.0
 11
780.468246240043
 21
180.3105065079757
 31
0.0
  0
LINE
  5
5AD2
330
5A56
100
AcDbEntity
  8
0
  6
Continuous
 62
     3
370
    13
100
AcDbLine
 10
780.468246240043
 20
176.6829398413053
 30
0.0
 11
780.468246240043
 21
177.2671731746423
 31
0.0
  0
SOLID
  5
5AD3
330
5A56
100
AcDbEntity
  8
0
 62
     3
100
AcDbTrace
 10
780.3599129067097
 20
180.8947398413127
 30
0.0
 11
780.5765795733763
 21
180.8947398413127
 31
0.0
 12
780.468246240043
 22
181.5447398413128
 32
0.0
 13
780.468246240043
 23
181.5447398413128
 33
0.0
  0
SOLID
  5
5AD4
330
5A56
100
AcDbEntity
  8
0
 62
     3
100
AcDbTrace
 10
780.3599129067097
 20
176.6829398413053
 30
0.0
 11
780.5765795733763
 21
176.6829398413053
 31
0.0
 12
780.468246240043
 22
176.0329398413053
 32
0.0
 13
780.468246240043
 23
176.0329398413053
 33
0.0
  0
MTEXT
  5
5AD5
330
5A56
100
AcDbEntity
  8
0
 62
     3
100
AcDbMText
 10
780.468246240043
 20
178.7888398413091
 30
0.0
 40
0.65
 41
0.0
 71
     5
 72
     1
  1
\A1;5 1/2"
 11
0.0000000000000001
 21
1.0
 31
0.0
 73
     1
 44
1.0
1001
ACAD
1000
MTEXTBEGIN
1070
    73
1070
     1
1070
    44
1040
1.0
1070
    74
1070
     0
1000
MTEXTEND
  0
POINT
  5
5AD6
330
5A56
100
AcDbEntity
  8
DEFPOINTS
 62
     0
100
AcDbPoint
 10
781.8452971111088
 20
181.5447398413128
 30
0.0
  0
POINT
  5
5AD7
330
5A56
100
AcDbEntity
  8
DEFPOINTS
 62
     0
100
AcDbPoint
 10
781.8452971111088
 20
176.0329398413053
 30
0.0
  0
POINT
  5
5AD8
330
5A56
100
AcDbEntity
  8
DEFPOINTS
 62
     0
100
AcDbPoint
 10
780.468246240043
 20
176.0329398413053
 30
0.0
  0
ENDBLK
  5
5A58
330
5A56
100
AcDbEntity
  8
0
100
AcDbBlockEnd
  0
BLOCK
  5
5B36
330
5B35
100
AcDbEntity
  8
0
100
AcDbBlockBegin
  2
*D70
 70
     1
 10
0.0
 20
0.0
 30
0.0
  3
*D70
  1

  0
LINE
  5
5B42
330
5B35
100
AcDbEntity
  8
0
  6
Continuous
 62
     3
370
    13
100
AcDbLine
 10
780.9652971111162
 20
181.5447398413128
 30
0.0
 11
780.0281788682163
 21
181.5447398413128
 31
0.0
  0
LINE
  5
5B43
330
5B35
100
AcDbEntity
  8
0
  6
Continuous
 62
     3
370
    13
100
AcDbLine
 10
780.9652971111162
 20
177.5604958413062
 30
0.0
 11
780.0281788682163
 21
177.5604958413062
 31
0.0
  0
LINE
  5
5B44
330
5B35
100
AcDbEntity
  8
0
  6
Continuous
 62
     3
370
    13
100
AcDbLine
 10
780.3481788682162
 20
180.8947398413127
 30
0.0
 11
780.3481788682162
 21
180.160673396865
 31
0.0
  0
LINE
  5
5B45
330
5B35
100
AcDbEntity
  8
0
  6
Continuous
 62
     3
370
    13
100
AcDbLine
 10
780.3481788682162
 20
178.2104958413062
 30
0.0
 11
780.3481788682162
 21
178.9445622857539
 31
0.0
  0
SOLID
  5
5B46
330
5B35
100
AcDbEntity
  8
0
 62
     3
100
AcDbTrace
 10
780.2398455348828
 20
180.8947398413127
 30
0.0
 11
780.4565122015497
 21
180.8947398413127
 31
0.0
 12
780.3481788682162
 22
181.5447398413128
 32
0.0
 13
780.3481788682162
 23
181.5447398413128
 33
0.0
  0
SOLID
  5
5B47
330
5B35
100
AcDbEntity
  8
0
 62
     3
100
AcDbTrace
 10
780.2398455348828
 20
178.2104958413062
 30
0.0
 11
780.4565122015497
 21
178.2104958413062
 31
0.0
 12
780.3481788682162
 22
177.5604958413062
 32
0.0
 13
780.3481788682162
 23
177.5604958413062
 33
0.0
  0
MTEXT
  5
5B48
330
5B35
100
AcDbEntity
  8
0
 62
     3
100
AcDbMText
 10
780.3481788682162
 20
179.5526178413096
 30
0.0
 40
0.65
 41
0.0
 71
     5
 72
     1
  1
\A1;4"
 11
0.0000000000000001
 21
1.0
 31
0.0
 73
     1
 44
1.0
1001
ACAD
1000
MTEXTBEGIN
1070
    73
1070
     1
1070
    44
1040
1.0
1070
    74
1070
     0
1000
MTEXTEND
  0
POINT
  5
5B49
330
5B35
100
AcDbEntity
  8
DEFPOINTS
 62
     0
100
AcDbPoint
 10
781.8452971111162
 20
181.5447398413128
 30
0.0
  0
POINT
  5
5B4A
330
5B35
100
AcDbEntity
  8
DEFPOINTS
 62
     0
100
AcDbPoint
 10
781.8452971111162
 20
177.5604958413062
 30
0.0
  0
POINT
  5
5B4B
330
5B35
100
AcDbEntity
  8
DEFPOINTS
 62
     0
100
AcDbPoint
 10
780.3481788682162
 20
177.5604958413062
 30
0.0
  0
ENDBLK
  5
5B37
330
5B35
100
AcDbEntity
  8
0
100
AcDbBlockEnd
  0
ENDSEC
  0
SECTION
  2
ENTITIES
  0
ARC
  5
58E3
330
432D
100
AcDbEntity
  8
0
370
    -3
100
AcDbCircle
 10
728.0839135103723
 20
156.1537447491175
 30
0.0
 40
70.866
100
AcDbArc
 50
355.4703238715165
 51
4.529676128483499
  0
ARC
  5
58E4
330
432D
100
AcDbEntity
  8
0
370
    -3
100
AcDbCircle
 10
791.0759135103778
 20
197.9646847491133
 30
0.0
 40
51.181
100
AcDbArc
 50
265.4741730474632
 51
274.5258269525369
  0
ARC
  5
58E5
330
432D
100
AcDbEntity
  8
0
370
    -3
100
AcDbCircle
 10
854.0679135103761
 20
156.1537447491175
 30
0.0
 40
70.866
100
AcDbArc
 50
175.4703238715165
 51
184.5296761284835
  0
ARC
  5
58E6
330
432D
100
AcDbEntity
  8
0
370
    -3
100
AcDbCircle
 10
791.0759135103778
 20
114.3428047491218
 30
0.0
 40
51.181
100
AcDbArc
 50
85.47417304746318
 51
94.5258269525368
  0
LINE
  5
58E7
330
432D
100
AcDbEntity
  8
0
370
    -3
100
AcDbLine
 10
783.0090005103754
 20
167.177344749118
 30
0.0
 11
813.4026405103773
 21
167.177344749118
 31
0.0
  0
LINE
  5
58E8
330
432D
100
AcDbEntity
  8
0
370
    -3
100
AcDbLine
 10
783.0090005103754
 20
167.0198647491236
 30
0.0
 11
813.4026405103773
 21
167.0198647491236
 31
0.0
  0
LINE
  5
58E9
330
432D
100
AcDbEntity
  8
0
370
    -3
100
AcDbLine
 10
783.4420705103746
 20
166.3505747491183
 30
0.0
 11
812.9695705103708
 21
166.3505747491183
 31
0.0
  0
LINE
  5
58EA
330
432D
100
AcDbEntity
  8
0
370
    -3
100
AcDbLine
 10
795.2728917118272
 20
166.2718347491211
 30
0.0
 11
812.9695705103708
 21
166.2718347491211
 31
0.0
  0
LINE
  5
58EB
330
432D
100
AcDbEntity
  8
0
370
    -3
100
AcDbLine
 10
783.4420705103746
 20
166.1930947491239
 30
0.0
 11
795.2667699642895
 21
166.1930947491239
 31
0.0
  0
LINE
  5
58EC
330
432D
100
AcDbEntity
  8
0
370
    -3
100
AcDbLine
 10
783.0090005103754
 20
145.1301447491171
 30
0.0
 11
813.4026405103773
 21
145.1301447491171
 31
0.0
  0
LINE
  5
58ED
330
432D
100
AcDbEntity
  8
0
370
    -3
100
AcDbLine
 10
783.0090005103754
 20
145.287624749126
 30
0.0
 11
813.4026405103773
 21
145.287624749126
 31
0.0
  0
LINE
  5
58EE
330
432D
100
AcDbEntity
  8
0
370
    -3
100
AcDbLine
 10
783.4420705103746
 20
145.9569147491168
 30
0.0
 11
812.9695705103708
 21
145.9569147491168
 31
0.0
  0
LINE
  5
58EF
330
432D
100
AcDbEntity
  8
0
370
    -3
100
AcDbLine
 10
783.4420705103746
 20
146.1143947491257
 30
0.0
 11
812.9695705103708
 21
146.1143947491257
 31
0.0
  0
ARC
  5
58F0
330
432D
100
AcDbEntity
  8
0
370
    -3
100
AcDbCircle
 10
783.4420705103746
 20
146.9411647491254
 30
0.0
 40
0.9842499999999999
100
AcDbArc
 50
180.0
 51
270.0
  0
ARC
  5
58F1
330
432D
100
AcDbEntity
  8
0
370
    -3
100
AcDbCircle
 10
783.4420705103746
 20
146.9411647491254
 30
0.0
 40
0.8267699999999999
100
AcDbArc
 50
180.0
 51
270.0
  0
ARC
  5
58F2
330
432D
100
AcDbEntity
  8
0
370
    -3
100
AcDbCircle
 10
812.9695705103708
 20
146.9411647491254
 30
0.0
 40
0.9842499999999999
100
AcDbArc
 50
270.0
 51
0.0
  0
ARC
  5
58F3
330
432D
100
AcDbEntity
  8
0
370
    -3
100
AcDbCircle
 10
812.9695705103708
 20
146.9411647491254
 30
0.0
 40
0.8267699999999999
100
AcDbArc
 50
270.0
 51
0.0
  0
ARC
  5
58F4
330
432D
100
AcDbEntity
  8
0
370
    -3
100
AcDbCircle
 10
813.4026405103773
 20
146.5080947491262
 30
0.0
 40
1.37795
100
AcDbArc
 50
270.0
 51
0.0
  0
ARC
  5
58F5
330
432D
100
AcDbEntity
  8
0
370
    -3
100
AcDbCircle
 10
813.4026405103773
 20
146.5080947491262
 30
0.0
 40
1.22047
100
AcDbArc
 50
270.0
 51
0.0
  0
ARC
  5
58F6
330
432D
100
AcDbEntity
  8
0
370
    -3
100
AcDbCircle
 10
783.0090005103754
 20
146.5080947491262
 30
0.0
 40
1.37795
100
AcDbArc
 50
180.0
 51
270.0
  0
ARC
  5
58F7
330
432D
100
AcDbEntity
  8
0
370
    -3
100
AcDbCircle
 10
783.0090005103754
 20
146.5080947491262
 30
0.0
 40
1.22047
100
AcDbArc
 50
180.0
 51
270.0
  0
LINE
  5
58F8
102
{ACAD_REACTORS
330
59A6
102
}
330
432D
100
AcDbEntity
  8
0
370
    -3
100
AcDbLine
 10
814.7805905103721
 20
165.7993947491234
 30
0.0
 11
814.7805905103721
 21
146.5080947491262
 31
0.0
  0
LINE
  5
58F9
330
432D
100
AcDbEntity
  8
0
370
    -3
100
AcDbLine
 10
814.6231105103705
 20
165.7993947491234
 30
0.0
 11
814.6231105103705
 21
146.5080947491262
 31
0.0
  0
LINE
  5
58FA
330
432D
100
AcDbEntity
  8
0
370
    -3
100
AcDbLine
 10
813.9538205103724
 20
165.3663247491242
 30
0.0
 11
813.9538205103724
 21
146.9411647491254
 31
0.0
  0
LINE
  5
58FB
330
432D
100
AcDbEntity
  8
0
370
    -3
100
AcDbLine
 10
813.8750805103752
 20
165.3663247491242
 30
0.0
 11
813.8750805103752
 21
163.2513726754589
 31
0.0
  0
LINE
  5
58FC
330
432D
100
AcDbEntity
  8
0
370
    -3
100
AcDbLine
 10
813.7963405103707
 20
163.2403447491125
 30
0.0
 11
813.7963405103707
 21
146.9411647491254
 31
0.0
  0
ARC
  5
58FD
330
432D
100
AcDbEntity
  8
0
370
    -3
100
AcDbCircle
 10
812.8514605103752
 20
162.9647547491224
 30
0.0
 40
0.9842499999999999
100
AcDbArc
 50
16.26020471433159
 51
90.0
  0
ARC
  5
58FE
330
432D
100
AcDbEntity
  8
0
370
    -3
100
AcDbCircle
 10
812.8514605103752
 20
162.9647547491224
 30
0.0
 40
1.062989999999999
100
AcDbArc
 50
16.26020471433159
 51
90.0
  0
ARC
  5
58FF
330
432D
100
AcDbEntity
  8
0
370
    -3
100
AcDbCircle
 10
812.9695705103708
 20
165.3663247491242
 30
0.0
 40
0.9842499999999999
100
AcDbArc
 50
0.0
 51
90.0
  0
ARC
  5
5900
330
432D
100
AcDbEntity
  8
0
370
    -3
100
AcDbCircle
 10
812.9695705103708
 20
165.3663247491242
 30
0.0
 40
0.9055099999999999
100
AcDbArc
 50
0.0
 51
90.0
  0
ARC
  5
5901
330
432D
100
AcDbEntity
  8
0
370
    -3
100
AcDbCircle
 10
813.4026405103773
 20
165.7993947491234
 30
0.0
 40
1.37795
100
AcDbArc
 50
0.0
 51
90.0
  0
ARC
  5
5902
330
432D
100
AcDbEntity
  8
0
370
    -3
100
AcDbCircle
 10
813.4026405103773
 20
165.7993947491234
 30
0.0
 40
1.22047
100
AcDbArc
 50
0.0
 51
90.0
  0
ARC
  5
5903
330
432D
100
AcDbEntity
  8
0
370
    -3
100
AcDbCircle
 10
787.3479620637497
 20
161.439491617861
 30
0.0
 40
3.936999999999999
100
AcDbArc
 50
94.5258269525368
 51
175.4703238715165
  0
ARC
  5
5904
330
432D
100
AcDbEntity
  8
0
370
    -3
100
AcDbCircle
 10
794.8038649569987
 20
161.439491617861
 30
0.0
 40
3.936999999999999
100
AcDbArc
 50
4.529676128483499
 51
85.47417304746318
  0
ARC
  5
5905
330
432D
100
AcDbEntity
  8
0
370
    -3
100
AcDbCircle
 10
794.8038649569987
 20
150.8679978803886
 30
0.0
 40
3.936999999999999
100
AcDbArc
 50
274.5258269525369
 51
355.4703238715165
  0
LINE
  5
5906
102
{ACAD_REACTORS
330
59A6
102
}
330
432D
100
AcDbEntity
  8
0
370
    -3
100
AcDbLine
 10
781.6310505103737
 20
165.7993947491234
 30
0.0
 11
781.6310505103737
 21
146.5080947491262
 31
0.0
  0
LINE
  5
5907
330
432D
100
AcDbEntity
  8
0
370
    -3
100
AcDbLine
 10
781.7885305103752
 20
165.7993947491234
 30
0.0
 11
781.7885305103752
 21
146.5080947491262
 31
0.0
  0
LINE
  5
5908
330
432D
100
AcDbEntity
  8
0
370
    -3
100
AcDbLine
 10
782.4578205103732
 20
165.3663247491242
 30
0.0
 11
782.4578205103732
 21
146.9411647491254
 31
0.0
  0
LINE
  5
5909
330
432D
100
AcDbEntity
  8
0
370
    -3
100
AcDbLine
 10
782.6153005103749
 20
165.3663247491242
 30
0.0
 11
782.6153005103749
 21
146.9411647491254
 31
0.0
  0
ARC
  5
590A
330
432D
100
AcDbEntity
  8
0
370
    -3
100
AcDbCircle
 10
783.4420705103746
 20
165.3663247491242
 30
0.0
 40
0.9842499999999999
100
AcDbArc
 50
90.0
 51
180.0
  0
ARC
  5
590B
330
432D
100
AcDbEntity
  8
0
370
    -3
100
AcDbCircle
 10
783.4420705103746
 20
165.3663247491242
 30
0.0
 40
0.8267699999999999
100
AcDbArc
 50
90.0
 51
180.0
  0
ARC
  5
590C
330
432D
100
AcDbEntity
  8
0
370
    -3
100
AcDbCircle
 10
783.0090005103754
 20
165.7993947491234
 30
0.0
 40
1.37795
100
AcDbArc
 50
90.0
 51
180.0
  0
ARC
  5
590D
330
432D
100
AcDbEntity
  8
0
370
    -3
100
AcDbCircle
 10
783.0090005103754
 20
165.7993947491234
 30
0.0
 40
1.22047
100
AcDbArc
 50
90.0
 51
180.0
  0
ARC
  5
590E
330
432D
100
AcDbEntity
  8
0
370
    -3
100
AcDbCircle
 10
787.3479620637497
 20
150.8679978803886
 30
0.0
 40
3.936999999999999
100
AcDbArc
 50
184.5296761284835
 51
265.4741730474632
  0
ARC
  5
590F
330
432D
100
AcDbEntity
  8
0
370
    -3
100
AcDbCircle
 10
806.7136775103772
 20
131.8230847491252
 30
0.0
 40
31.496
100
AcDbArc
 50
84.39312927237201
 51
95.60687072762798
  0
ARC
  5
5910
330
432D
100
AcDbEntity
  8
0
370
    -3
100
AcDbCircle
 10
806.7136775103772
 20
178.2796847491156
 30
0.0
 40
31.496
100
AcDbArc
 50
264.3931292723721
 51
275.606870727628
  0
ARC
  5
5911
330
432D
100
AcDbEntity
  8
0
370
    -3
100
AcDbCircle
 10
762.0287275103744
 20
155.0513847491131
 30
0.0
 40
51.181
100
AcDbArc
 50
354.4700400440474
 51
5.529959955952608
  0
ARC
  5
5912
330
432D
100
AcDbEntity
  8
0
370
    -3
100
AcDbCircle
 10
803.9826360073034
 20
159.6420503948504
 30
0.0
 40
3.543299999999999
100
AcDbArc
 50
95.60687072762798
 51
174.4700400440474
  0
ARC
  5
5913
330
432D
100
AcDbEntity
  8
0
370
    -3
100
AcDbCircle
 10
809.4447190134431
 20
159.6420503948504
 30
0.0
 40
3.543299999999999
100
AcDbArc
 50
5.529959955952608
 51
84.39312927237201
  0
ARC
  5
5914
330
432D
100
AcDbEntity
  8
0
370
    -3
100
AcDbCircle
 10
809.4447190134431
 20
150.4607191033904
 30
0.0
 40
3.543299999999999
100
AcDbArc
 50
275.606870727628
 51
354.4700400440474
  0
ARC
  5
5915
330
432D
100
AcDbEntity
  8
0
370
    -3
100
AcDbCircle
 10
803.9826360073034
 20
150.4607191033904
 30
0.0
 40
3.543299999999999
100
AcDbArc
 50
185.5299599559526
 51
264.3931292723721
  0
ARC
  5
5916
330
432D
100
AcDbEntity
  8
0
370
    -3
100
AcDbCircle
 10
794.4697710901871
 20
161.1181699381452
 30
0.0
 40
5.137126535562173
100
AcDbArc
 50
28.85037156351878
 51
81.07480115698642
  0
ARC
  5
5917
330
432D
100
AcDbEntity
  8
0
370
    -3
100
AcDbCircle
 10
794.4697710901871
 20
161.1181699381452
 30
0.0
 40
5.215866535562173
100
AcDbArc
 50
28.85037156351878
 51
81.14256135759028
  0
ARC
  5
5918
330
432D
100
AcDbEntity
  8
0
370
    -3
100
AcDbCircle
 10
800.3486321509242
 20
164.3568348555602
 30
0.0
 40
1.574799999999999
100
AcDbArc
 50
208.8503715635188
 51
308.8133166018809
  0
ARC
  5
5919
330
432D
100
AcDbEntity
  8
0
370
    -3
100
AcDbCircle
 10
800.3486321509242
 20
164.3568348555602
 30
0.0
 40
1.496059999999999
100
AcDbArc
 50
208.8503715635188
 51
308.8133166018809
  0
LINE
  5
591A
330
432D
100
AcDbEntity
  8
0
370
    -3
100
AcDbLine
 10
803.3806025778011
 20
163.9490047491165
 30
0.0
 11
812.8514605103752
 21
163.9490047491165
 31
0.0
  0
LINE
  5
591B
330
432D
100
AcDbEntity
  8
0
370
    -3
100
AcDbLine
 10
803.3806025778011
 20
164.0277447491136
 30
0.0
 11
812.8514605103752
 21
164.0277447491136
 31
0.0
  0
ARC
  5
591C
330
432D
100
AcDbEntity
  8
0
370
    -3
100
AcDbCircle
 10
803.699544945897
 20
160.1911228751744
 30
0.0
 40
3.771392370555173
100
AcDbArc
 50
94.85123332743471
 51
128.8133166018807
  0
ARC
  5
591D
330
432D
100
AcDbEntity
  8
0
370
    -3
100
AcDbCircle
 10
803.699544945897
 20
160.1911228751744
 30
0.0
 40
3.850132370555173
100
AcDbArc
 50
94.85123332743471
 51
128.8133166018807
  0
CIRCLE
  5
591E
330
432D
100
AcDbEntity
  8
0
370
    -3
100
AcDbCircle
 10
800.2136905103741
 20
165.1497897491247
 30
0.0
 40
0.6889750000000002
  0
CIRCLE
  5
591F
330
432D
100
AcDbEntity
  8
0
370
    -3
100
AcDbCircle
 10
806.7136775103772
 20
157.2167347491233
 30
0.0
 40
1.771649999999999
  0
CIRCLE
  5
5920
330
432D
100
AcDbEntity
  8
0
370
    -3
100
AcDbCircle
 10
806.7136775103772
 20
157.2167347491233
 30
0.0
 40
2.283459999999999
  0
CIRCLE
  5
5921
330
432D
100
AcDbEntity
  8
0
370
    -3
100
AcDbCircle
 10
806.7136775103772
 20
157.2167347491233
 30
0.0
 40
2.16535
  0
CIRCLE
  5
5922
330
432D
100
AcDbEntity
  8
0
370
    -3
100
AcDbCircle
 10
791.0759135103778
 20
159.6183047491251
 30
0.0
 40
2.283459999999999
  0
CIRCLE
  5
5923
330
432D
100
AcDbEntity
  8
0
370
    -3
100
AcDbCircle
 10
791.0759135103778
 20
159.6183047491251
 30
0.0
 40
2.16535
  0
CIRCLE
  5
5924
330
432D
100
AcDbEntity
  8
0
370
    -3
100
AcDbCircle
 10
791.0759135103778
 20
159.6183047491251
 30
0.0
 40
1.771649999999999
  0
DIMENSION
  5
5925
330
432D
100
AcDbEntity
  8
0
100
AcDbDimension
  2
*D62
 10
778.1659646818933
 20
145.1301447491171
 30
0.0
 11
778.1659646818933
 21
156.1537447491176
 31
0.0
 70
    32
  1
<>[]
 71
     5
 42
22.04720000000088
  3
副本STANDARD
100
AcDbAlignedDimension
 13
783.0090005103754
 23
167.177344749118
 33
0.0
 14
783.0090005103754
 24
145.1301447491171
 34
0.0
 50
90.0
100
AcDbRotatedDimension
1001
ACAD_DSTYLE_DIMINSPECT
1070
   396
1000
100%
1070
   395
1000

1070
   394
1070
    33
1070
   393
1070
     0
1001
ACAD
1000
DSTYLE
1002
{
1070
    49
1040
1.25
1070
    50
1040
1.570796326794896
1070
    90
1070
     1
1002
}
  0
DIMENSION
  5
5926
330
432D
100
AcDbEntity
  8
0
100
AcDbDimension
  2
*D63
 10
798.949913510374
 20
143.1821965553429
 30
0.0
 11
791.0759135103743
 21
143.1821965553429
 31
0.0
 70
    32
 71
     5
 42
15.74799999999959
  3
副本STANDARD
100
AcDbAlignedDimension
 13
783.2019135103744
 23
144.7364447491166
 33
0.0
 14
798.949913510374
 24
144.7364447491166
 34
0.0
100
AcDbRotatedDimension
1001
ACAD
1000
DSTYLE
1002
{
1070
    49
1040
1.25
1070
    50
1040
1.570796326794896
1070
    90
1070
     1
1002
}
  0
DIMENSION
  5
5927
330
432D
100
AcDbEntity
  8
0
100
AcDbDimension
  2
*D64
 10
813.2097275103713
 20
143.1382336498538
 30
0.0
 11
806.7136775103731
 21
143.1382336498538
 31
0.0
 70
   160
 71
     5
 42
12.99209999999584
  3
副本STANDARD
100
AcDbAlignedDimension
 13
800.2176275103755
 23
144.7364447491166
 33
0.0
 14
813.2097275103713
 24
144.7364447491166
 34
0.0
100
AcDbRotatedDimension
1001
ACAD
1000
DSTYLE
1002
{
1070
    49
1040
1.25
1070
    50
1040
1.570796326794896
1070
    90
1070
     1
1002
}
  0
DIMENSION
  5
5928
330
432D
100
AcDbEntity
  8
0
100
AcDbDimension
  2
*D65
 10
817.1012054607396
 20
146.7836847491164
 30
0.0
 11
817.1012054607396
 21
155.0513847491205
 31
0.0
 70
   160
 71
     5
 42
16.53540000000794
  3
副本STANDARD
100
AcDbAlignedDimension
 13
815.1742905103727
 23
163.3190847491244
 33
0.0
 14
815.1742905103727
 24
146.7836847491164
 34
0.0
 50
90.0
100
AcDbRotatedDimension
1001
ACAD
1000
DSTYLE
1002
{
1070
    49
1040
1.25
1070
    50
1040
1.570796326794896
1070
    90
1070
     1
1002
}
  0
DIMENSION
  5
5929
330
432D
100
AcDbEntity
  8
0
100
AcDbDimension
  2
*D66
 10
779.9986699611817
 20
146.7836847491164
 30
0.0
 11
779.9986699611817
 21
156.1537447491176
 31
0.0
 70
    32
 71
     5
 42
18.7401200000022
  3
副本STANDARD
100
AcDbAlignedDimension
 13
791.0759135103778
 23
165.5238047491186
 33
0.0
 14
791.0759135103778
 24
146.7836847491164
 34
0.0
 50
90.0
100
AcDbRotatedDimension
1001
ACAD
1000
DSTYLE
1002
{
1070
    49
1040
1.25
1070
    50
1040
1.570796326794896
1070
    90
1070
     1
1002
}
  0
REGION
  5
592A
330
432D
100
AcDbEntity
  8
0
100
AcDbModelerGeometry
 70
     1
  1
koo nn n o          
  1
ni ^ *+0;:,4 ^ *+0\^ [ nf ^ LR mnjqoqoqkmnk QK o  
  1
mjqlffffffffffffff fqfffffffffffffffj:rooh n:rono 
  1
=0;& {rn {n {rn {rn |
  1
3*2/ {rn {rn {m {o |
  1
,7:33 {rn {rn {rn {l {rn {n |
  1
9><: {rn {rn {k {m {rn {j 90-(>-; ;0*=3: 0*+ |
  1
300/ {rn {rn {i {l |
  1
/3>1:r,*-9><: {rn gokqmmfklojnolhiif nijqnkfhgfhkfnmkif o o o n oqolflhoooooooooooom o o 90-(>-;@) V V V V |
  1
<0:;8: {rn {i {i {rn {h 90-(>-; {k {rn |
  1
:;8: {rn {g {g {i {f 90-(>-; |
  1
):-+:' {rn {h {no |
  1
:336/,:r<*-): {rn gokqmmfklojnolhiif nijqnkfhgfhkfnmkif o o o n oqiifmfoooooooooooj o o n V V |
  1
/061+ {rn gokqgfghmojnolhkif nijqnkfhgfhkfnmkif o |
  0
REGION
  5
592B
330
432D
100
AcDbEntity
  8
0
100
AcDbModelerGeometry
 70
     1
  1
koo nn n o          
  1
ni ^ *+0;:,4 ^ *+0\^ [ nf ^ LR mnjqoqoqkmnk QK o  
  1
mjqlffffffffffffff fqfffffffffffffffj:rooh n:rono 
  1
=0;& {rn {n {rn {rn |
  1
3*2/ {rn {rn {m {o |
  1
,7:33 {rn {rn {rn {l {rn {n |
  1
9><: {rn {rn {k {m {rn {j 90-(>-; ;0*=3: 0*+ |
  1
300/ {rn {rn {i {l |
  1
/3>1:r,*-9><: {rn gogqmkjnhojnolhnfi nijqnkfhgfhkfnmkif o o o n oqolflhoooooooooooom o o 90-(>-;@) V V V V |
  1
<0:;8: {rn {i {i {rn {h 90-(>-; {k {rn |
  1
:;8: {rn {g {g {i {f 90-(>-; |
  1
):-+:' {rn {h {no |
  1
:336/,:r<*-): {rn gogqmkjnhojnolhnfi nijqnkfhgfhkfnmkif o o o n oqiifmfoooooooooooj o o n V V |
  1
/061+ {rn gogqfnkkiojnolhhmk nijqnkfhgfhkfnmkif o |
  0
REGION
  5
592C
330
432D
100
AcDbEntity
  8
0
100
AcDbModelerGeometry
 70
     1
  1
koo nn n o          
  1
ni ^ *+0;:,4 ^ *+0\^ [ nf ^ LR mnjqoqoqkmnk QK o  
  1
mjqlffffffffffffff fqfffffffffffffffj:rooh n:rono 
  1
=0;& {rn {n {rn {rn |
  1
3*2/ {rn {rn {m {o |
  1
,7:33 {rn {rn {rn {l {rn {n |
  1
9><: {rn {rn {k {m {rn {j 90-(>-; ;0*=3: 0*+ |
  1
300/ {rn {rn {i {l |
  1
/3>1:r,*-9><: {rn gnmqmiofnojnolhkjm nijqnkfhgfhkfnmkif o o o n oqolflhoooooooooooom o o 90-(>-;@) V V V V |
  1
<0:;8: {rn {i {i {rn {h 90-(>-; {k {rn |
  1
:;8: {rn {g {g {i {f 90-(>-; |
  1
):-+:' {rn {h {no |
  1
:336/,:r<*-): {rn gnmqmiofnojnolhkjm nijqnkfhgfhkfnmkif o o o n oqiifmfoooooooooooj o o n V V |
  1
/061+ {rn gnmqflomoojnolhmjm nijqnkfhgfhkfnmkif o |
  0
LINE
  5
592D
330
432D
100
AcDbEntity
  8
0
  6
AM_ISO02W050x2
 62
     4
370
    13
100
AcDbLine
 10
783.2172793766783
 20
181.0887777155333
 30
0.0
 11
783.4086491797912
 21
178.3520620296078
 31
0.0
  0
LINE
  5
592E
330
432D
100
AcDbEntity
  8
0
370
    -3
100
AcDbLine
 10
783.1780052800219
 20
181.0860314031636
 30
0.0
 11
783.3693750831351
 21
178.3493157172381
 31
0.0
  0
ARC
  5
592F
330
432D
100
AcDbEntity
  8
0
  6
AM_ISO02W050x2
 62
     4
370
    13
100
AcDbCircle
 10
782.9816347967261
 20
181.072299841315
 30
0.0
 40
0.23622
100
AcDbArc
 50
3.999999997800076
 51
90.0
1001
GENIUS_GENODEF_13
1002
{
1000
HIER
1070
     0
1002
}
1002
{
1000
MANEDIT
1070
     0
1002
}
1002
{
1000
NOSEL
1070
     0
1002
}
1002
{
1000
BEHIND
1070
     0
1002
}
1002
{
1000
OTHER
1070
     0
1002
}
1002
{
1000
REACTOR
1002
}
1001
GENIUS_GENOBJ-N-FIL_13
1002
{
1000
OWNER
1000
GEN
1002
}
  0
ARC
  5
5930
330
432D
100
AcDbEntity
  8
0
370
    -3
100
AcDbCircle
 10
782.9816347967261
 20
181.072299841315
 30
0.0
 40
0.19685
100
AcDbArc
 50
3.999999997800076
 51
90.0
1001
GENIUS_GENODEF_13
1002
{
1000
HIER
1070
     0
1002
}
1002
{
1000
MANEDIT
1070
     0
1002
}
1002
{
1000
NOSEL
1070
     0
1002
}
1002
{
1000
BEHIND
1070
     0
1002
}
1002
{
1000
OTHER
1070
     0
1002
}
1002
{
1000
REACTOR
1002
}
1001
GENIUS_GENOBJ-N-FIL_13
1002
{
1000
OWNER
1000
GEN
1002
}
  0
LINE
  5
5931
330
432D
100
AcDbEntity
  8
0
  6
AM_ISO02W050x2
 62
     4
370
    13
100
AcDbLine
 10
800.2329933766793
 20
181.0887777155333
 30
0.0
 11
800.3210943045028
 21
179.8288757498123
 31
0.0
  0
LINE
  5
5932
330
432D
100
AcDbEntity
  8
0
370
    -3
100
AcDbLine
 10
800.193719280023
 20
181.0860314031636
 30
0.0
 11
800.2818202078467
 21
179.8261294374426
 31
0.0
  0
ARC
  5
5933
330
432D
100
AcDbEntity
  8
0
  6
AM_ISO02W050x2
 62
     4
370
    13
100
AcDbCircle
 10
799.9973487967268
 20
181.072299841315
 30
0.0
 40
0.23622
100
AcDbArc
 50
3.999999997800076
 51
90.0
1001
GENIUS_GENODEF_13
1002
{
1000
HIER
1070
     0
1002
}
1002
{
1000
MANEDIT
1070
     0
1002
}
1002
{
1000
NOSEL
1070
     0
1002
}
1002
{
1000
BEHIND
1070
     0
1002
}
1002
{
1000
OTHER
1070
     0
1002
}
1002
{
1000
REACTOR
1002
}
1001
GENIUS_GENOBJ-N-FIL_13
1002
{
1000
OWNER
1000
GEN
1002
}
  0
ARC
  5
5934
330
432D
100
AcDbEntity
  8
0
370
    -3
100
AcDbCircle
 10
799.9973487967268
 20
181.072299841315
 30
0.0
 40
0.19685
100
AcDbArc
 50
3.999999997800076
 51
90.0
1001
GENIUS_GENODEF_13
1002
{
1000
HIER
1070
     0
1002
}
1002
{
1000
MANEDIT
1070
     0
1002
}
1002
{
1000
NOSEL
1070
     0
1002
}
1002
{
1000
BEHIND
1070
     0
1002
}
1002
{
1000
OTHER
1070
     0
1002
}
1002
{
1000
REACTOR
1002
}
1001
GENIUS_GENOBJ-N-FIL_13
1002
{
1000
OWNER
1000
GEN
1002
}
  0
LINE
  5
5935
330
432D
100
AcDbEntity
  8
0
  6
AM_ISO02W050x2
 62
     4
370
    13
100
AcDbLine
 10
813.1062497216241
 20
179.8287185193806
 30
0.0
 11
813.1943616440674
 21
181.0887777155333
 31
0.0
  0
LINE
  5
5936
330
432D
100
AcDbEntity
  8
0
370
    -3
100
AcDbLine
 10
813.1455238182805
 20
179.8259722070108
 30
0.0
 11
813.2336357407307
 21
181.0860314031636
 31
0.0
  0
ARC
  5
5937
330
432D
100
AcDbEntity
  8
0
  6
AM_ISO02W050x2
 62
     4
370
    13
100
AcDbCircle
 10
791.0773936104939
 20
294.1426713120056
 30
0.0
 40
118.11
100
AcDbArc
 50
267.369459741211
 51
269.0332627331539
  0
ARC
  5
5938
330
432D
100
AcDbEntity
  8
0
  6
AM_ISO02W050x2
 62
     4
370
    13
100
AcDbCircle
 10
785.7650949793147
 20
178.5168407718922
 30
0.0
 40
2.3622
100
AcDbArc
 50
183.9999999978001
 51
267.369459741211
1001
GENIUS_GENODEF_13
1002
{
1000
HIER
1070
     0
1002
}
1002
{
1000
MANEDIT
1070
     0
1002
}
1002
{
1000
NOSEL
1070
     0
1002
}
1002
{
1000
BEHIND
1070
     0
1002
}
1002
{
1000
OTHER
1070
     0
1002
}
1002
{
1000
REACTOR
1002
}
1001
GENIUS_GENOBJ-N-FIL_13
1002
{
1000
OWNER
1000
GEN
1002
}
  0
ARC
  5
5939
330
432D
100
AcDbEntity
  8
0
  6
AM_ISO02W050x2
 62
     4
370
    13
100
AcDbCircle
 10
789.0833193716077
 20
175.9707544674495
 30
0.0
 40
0.07874
100
AcDbArc
 50
26.59707043281515
 51
89.03326273315384
1001
GENIUS_GENODEF_13
1002
{
1000
HIER
1070
     0
1002
}
1002
{
1000
MANEDIT
1070
     0
1002
}
1002
{
1000
NOSEL
1070
     0
1002
}
1002
{
1000
BEHIND
1070
     0
1002
}
1002
{
1000
OTHER
1070
     0
1002
}
1002
{
1000
REACTOR
1002
}
1001
GENIUS_GENOBJ-N-FIL_13
1002
{
1000
OWNER
1000
GEN
1002
}
  0
ARC
  5
593A
330
432D
100
AcDbEntity
  8
0
370
    -3
100
AcDbCircle
 10
789.0833193716077
 20
175.9707544674495
 30
0.0
 40
0.03937
100
AcDbArc
 50
26.59707043281515
 51
89.03326273315384
1001
GENIUS_GENODEF_13
1002
{
1000
HIER
1070
     0
1002
}
1002
{
1000
MANEDIT
1070
     0
1002
}
1002
{
1000
NOSEL
1070
     0
1002
}
1002
{
1000
BEHIND
1070
     0
1002
}
1002
{
1000
OTHER
1070
     0
1002
}
1002
{
1000
REACTOR
1002
}
1001
GENIUS_GENOBJ-N-FIL_13
1002
{
1000
OWNER
1000
GEN
1002
}
  0
ARC
  5
593B
330
432D
100
AcDbEntity
  8
0
370
    -3
100
AcDbCircle
 10
791.0773936104939
 20
294.1426713120056
 30
0.0
 40
118.14937
100
AcDbArc
 50
267.369459741211
 51
269.0332627331539
  0
ARC
  5
593C
330
432D
100
AcDbEntity
  8
0
370
    -3
100
AcDbCircle
 10
785.7650949793147
 20
178.5168407718922
 30
0.0
 40
2.401569999999999
100
AcDbArc
 50
183.9999999978001
 51
267.369459741211
1001
GENIUS_GENODEF_13
1002
{
1000
HIER
1070
     0
1002
}
1002
{
1000
MANEDIT
1070
     0
1002
}
1002
{
1000
NOSEL
1070
     0
1002
}
1002
{
1000
BEHIND
1070
     0
1002
}
1002
{
1000
OTHER
1070
     0
1002
}
1002
{
1000
REACTOR
1002
}
1001
GENIUS_GENOBJ-N-FIL_13
1002
{
1000
OWNER
1000
GEN
1002
}
  0
LINE
  5
593D
330
432D
100
AcDbEntity
  8
0
  6
AM_ISO02W050x2
 62
     4
370
    13
100
AcDbLine
 10
789.2900569217577
 20
175.8912078413161
 30
0.0
 11
792.8617700989905
 21
175.8912078413161
 31
0.0
  0
LINE
  5
593E
330
432D
100
AcDbEntity
  8
0
370
    -3
100
AcDbLine
 10
789.2900569217577
 20
175.851837841303
 30
0.0
 11
792.8617700989905
 21
175.851837841303
 31
0.0
  0
LINE
  5
593F
330
432D
100
AcDbEntity
  8
0
  6
AM_ISO02W050x2
 62
     4
370
    -3
100
AcDbLine
 10
789.1323568443891
 20
176.0486878413105
 30
0.0
 11
793.0224303765915
 21
176.0486878413105
 31
0.0
  0
LINE
  5
5940
330
432D
100
AcDbEntity
  8
0
  6
AM_ISO02W050x2
 62
     4
370
    13
100
AcDbLine
 10
789.223365282092
 20
175.8912078413161
 30
0.0
 11
789.2900569217577
 21
175.8912078413161
 31
0.0
  0
LINE
  5
5941
330
432D
100
AcDbEntity
  8
0
370
    -3
100
AcDbLine
 10
789.223365282092
 20
175.851837841303
 30
0.0
 11
789.2900569217577
 21
175.851837841303
 31
0.0
  0
ARC
  5
5942
330
432D
100
AcDbEntity
  8
0
  6
AM_ISO02W050x2
 62
     4
370
    13
100
AcDbCircle
 10
789.223365282092
 20
175.9108928413081
 30
0.0
 40
0.019685
100
AcDbArc
 50
206.5970704328152
 51
270.0
1001
GENIUS_GENODEF_13
1002
{
1000
HIER
1070
     0
1002
}
1002
{
1000
MANEDIT
1070
     0
1002
}
1002
{
1000
NOSEL
1070
     0
1002
}
1002
{
1000
BEHIND
1070
     0
1002
}
1002
{
1000
OTHER
1070
     0
1002
}
1002
{
1000
REACTOR
1002
}
1001
GENIUS_GENOBJ-N-FIL_13
1002
{
1000
OWNER
1000
GEN
1002
}
  0
ARC
  5
5943
330
432D
100
AcDbEntity
  8
0
370
    -3
100
AcDbCircle
 10
789.223365282092
 20
175.9108928413081
 30
0.0
 40
0.059055
100
AcDbArc
 50
206.5970704328152
 51
270.0
1001
GENIUS_GENODEF_13
1002
{
1000
HIER
1070
     0
1002
}
1002
{
1000
MANEDIT
1070
     0
1002
}
1002
{
1000
NOSEL
1070
     0
1002
}
1002
{
1000
BEHIND
1070
     0
1002
}
1002
{
1000
OTHER
1070
     0
1002
}
1002
{
1000
REACTOR
1002
}
1001
GENIUS_GENOBJ-N-FIL_13
1002
{
1000
OWNER
1000
GEN
1002
}
  0
LINE
  5
5944
330
432D
100
AcDbEntity
  8
0
  6
AM_ISO02W050x2
 62
     4
370
    13
100
AcDbLine
 10
789.1537268788139
 20
176.0060074180985
 30
0.0
 11
789.2057634052887
 21
175.9020796036532
 31
0.0
  0
LINE
  5
5945
330
432D
100
AcDbEntity
  8
0
370
    -3
100
AcDbLine
 10
789.1185231252145
 20
175.988380942774
 30
0.0
 11
789.1705596516892
 21
175.8844531283287
 31
0.0
  0
ARC
  5
5946
330
432D
100
AcDbEntity
  8
0
  6
AM_ISO02W050x2
 62
     4
370
    13
100
AcDbCircle
 10
806.7151576104931
 20
256.2646580105395
 30
0.0
 40
78.74000000000008
100
AcDbArc
 50
266.9697172874218
 51
268.5501453897075
  0
ARC
  5
5947
330
432D
100
AcDbEntity
  8
0
  6
AM_ISO02W050x2
 62
     4
370
    13
100
AcDbCircle
 10
802.6775401040262
 20
179.9936544920822
 30
0.0
 40
2.3622
100
AcDbArc
 50
183.9999999978001
 51
266.9697172874218
1001
GENIUS_GENODEF_13
1002
{
1000
HIER
1070
     0
1002
}
1002
{
1000
MANEDIT
1070
     0
1002
}
1002
{
1000
NOSEL
1070
     0
1002
}
1002
{
1000
BEHIND
1070
     0
1002
}
1002
{
1000
OTHER
1070
     0
1002
}
1002
{
1000
REACTOR
1002
}
1001
GENIUS_GENOBJ-N-FIL_13
1002
{
1000
OWNER
1000
GEN
1002
}
  0
ARC
  5
5948
330
432D
100
AcDbEntity
  8
0
370
    -3
100
AcDbCircle
 10
806.7151576104931
 20
256.2646580105395
 30
0.0
 40
78.77937000000007
100
AcDbArc
 50
266.9697172874218
 51
268.5501453897075
  0
ARC
  5
5949
330
432D
100
AcDbEntity
  8
0
370
    -3
100
AcDbCircle
 10
802.6775401040262
 20
179.9936544920822
 30
0.0
 40
2.401569999999999
100
AcDbArc
 50
183.9999999978001
 51
266.9697172874218
1001
GENIUS_GENODEF_13
1002
{
1000
HIER
1070
     0
1002
}
1002
{
1000
MANEDIT
1070
     0
1002
}
1002
{
1000
NOSEL
1070
     0
1002
}
1002
{
1000
BEHIND
1070
     0
1002
}
1002
{
1000
OTHER
1070
     0
1002
}
1002
{
1000
REACTOR
1002
}
1001
GENIUS_GENOBJ-N-FIL_13
1002
{
1000
OWNER
1000
GEN
1002
}
  0
ARC
  5
594A
330
432D
100
AcDbEntity
  8
0
  6
AM_ISO02W050x2
 62
     4
370
    13
100
AcDbCircle
 10
804.7208829987116
 20
177.4711516539866
 30
0.0
 40
0.07874
100
AcDbArc
 50
26.59707043281515
 51
88.55014538970753
1001
GENIUS_GENODEF_13
1002
{
1000
HIER
1070
     0
1002
}
1002
{
1000
MANEDIT
1070
     0
1002
}
1002
{
1000
NOSEL
1070
     0
1002
}
1002
{
1000
BEHIND
1070
     0
1002
}
1002
{
1000
OTHER
1070
     0
1002
}
1002
{
1000
REACTOR
1002
}
1001
GENIUS_GENOBJ-N-FIL_13
1002
{
1000
OWNER
1000
GEN
1002
}
  0
ARC
  5
594B
330
432D
100
AcDbEntity
  8
0
370
    -3
100
AcDbCircle
 10
804.7208829987116
 20
177.4711516539866
 30
0.0
 40
0.03937
100
AcDbArc
 50
26.59707043281515
 51
88.55014538970753
1001
GENIUS_GENODEF_13
1002
{
1000
HIER
1070
     0
1002
}
1002
{
1000
MANEDIT
1070
     0
1002
}
1002
{
1000
NOSEL
1070
     0
1002
}
1002
{
1000
BEHIND
1070
     0
1002
}
1002
{
1000
OTHER
1070
     0
1002
}
1002
{
1000
REACTOR
1002
}
1001
GENIUS_GENOBJ-N-FIL_13
1002
{
1000
OWNER
1000
GEN
1002
}
  0
ARC
  5
594C
330
432D
100
AcDbEntity
  8
0
  6
AM_ISO02W050x2
 62
     4
370
    13
100
AcDbCircle
 10
808.7090321573828
 20
177.4711415293024
 30
0.0
 40
0.07874
100
AcDbArc
 50
91.44956369592859
 51
152.9739898144655
1001
GENIUS_GENODEF_13
1002
{
1000
HIER
1070
     0
1002
}
1002
{
1000
MANEDIT
1070
     0
1002
}
1002
{
1000
NOSEL
1070
     0
1002
}
1002
{
1000
BEHIND
1070
     0
1002
}
1002
{
1000
OTHER
1070
     0
1002
}
1002
{
1000
REACTOR
1002
}
1001
GENIUS_GENOBJ-N-FIL_13
1002
{
1000
OWNER
1000
GEN
1002
}
  0
ARC
  5
594D
330
432D
100
AcDbEntity
  8
0
370
    -3
100
AcDbCircle
 10
808.7090321573828
 20
177.4711415293024
 30
0.0
 40
0.03937
100
AcDbArc
 50
91.44956369592859
 51
152.9739898144655
1001
GENIUS_GENODEF_13
1002
{
1000
HIER
1070
     0
1002
}
1002
{
1000
MANEDIT
1070
     0
1002
}
1002
{
1000
NOSEL
1070
     0
1002
}
1002
{
1000
BEHIND
1070
     0
1002
}
1002
{
1000
OTHER
1070
     0
1002
}
1002
{
1000
REACTOR
1002
}
1001
GENIUS_GENOBJ-N-FIL_13
1002
{
1000
OWNER
1000
GEN
1002
}
  0
LINE
  5
594E
330
432D
100
AcDbEntity
  8
0
  6
AM_ISO02W050x2
 62
     4
370
    13
100
AcDbLine
 10
804.927820921757
 20
177.3912048413078
 30
0.0
 11
808.4995340989895
 21
177.3912048413078
 31
0.0
  0
LINE
  5
594F
330
432D
100
AcDbEntity
  8
0
370
    -3
100
AcDbLine
 10
804.927820921757
 20
177.3518348413092
 30
0.0
 11
808.4995340989895
 21
177.3518348413092
 31
0.0
  0
LINE
  5
5950
330
432D
100
AcDbEntity
  8
0
  6
AM_ISO02W050x2
 62
     4
370
    13
100
AcDbLine
 10
804.7701208443884
 20
177.5486848413168
 30
0.0
 11
808.6601943765979
 21
177.5486848413168
 31
0.0
  0
LINE
  5
5951
330
432D
100
AcDbEntity
  8
0
  6
AM_ISO02W050x2
 62
     4
370
    13
100
AcDbLine
 10
808.5678073994547
 20
177.3912048413078
 30
0.0
 11
808.4995340989895
 21
177.3912048413078
 31
0.0
  0
LINE
  5
5952
330
432D
100
AcDbEntity
  8
0
370
    -3
100
AcDbLine
 10
808.5678073994547
 20
177.3518348413092
 30
0.0
 11
808.4995340989895
 21
177.3518348413092
 31
0.0
  0
LINE
  5
5953
330
432D
100
AcDbEntity
  8
0
  6
AM_ISO02W050x2
 62
     4
370
    13
100
AcDbLine
 10
808.5853428040916
 20
177.401945076974
 30
0.0
 11
808.638890538821
 21
177.5069205866641
 31
0.0
  0
LINE
  5
5954
330
432D
100
AcDbEntity
  8
0
370
    -3
100
AcDbLine
 10
808.6204136133726
 20
177.3840555482786
 30
0.0
 11
808.673961348102
 21
177.4890310579833
 31
0.0
  0
ARC
  5
5955
330
432D
100
AcDbEntity
  8
0
  6
AM_ISO02W050x2
 62
     4
370
    13
100
AcDbCircle
 10
808.5678073994547
 20
177.4108898413144
 30
0.0
 40
0.019685
100
AcDbArc
 50
270.0
 51
332.9739898144655
1001
GENIUS_GENODEF_13
1002
{
1000
HIER
1070
     0
1002
}
1002
{
1000
MANEDIT
1070
     0
1002
}
1002
{
1000
NOSEL
1070
     0
1002
}
1002
{
1000
BEHIND
1070
     0
1002
}
1002
{
1000
OTHER
1070
     0
1002
}
1002
{
1000
REACTOR
1002
}
1001
GENIUS_GENOBJ-N-FIL_13
1002
{
1000
OWNER
1000
GEN
1002
}
  0
ARC
  5
5956
330
432D
100
AcDbEntity
  8
0
370
    -3
100
AcDbCircle
 10
808.5678073994547
 20
177.4108898413144
 30
0.0
 40
0.059055
100
AcDbArc
 50
270.0
 51
332.9739898144655
1001
GENIUS_GENODEF_13
1002
{
1000
HIER
1070
     0
1002
}
1002
{
1000
MANEDIT
1070
     0
1002
}
1002
{
1000
NOSEL
1070
     0
1002
}
1002
{
1000
BEHIND
1070
     0
1002
}
1002
{
1000
OTHER
1070
     0
1002
}
1002
{
1000
REACTOR
1002
}
1001
GENIUS_GENOBJ-N-FIL_13
1002
{
1000
OWNER
1000
GEN
1002
}
  0
LINE
  5
5957
330
432D
100
AcDbEntity
  8
0
  6
AM_ISO02W050x2
 62
     4
370
    13
100
AcDbLine
 10
804.8611292820913
 20
177.3912048413078
 30
0.0
 11
804.927820921757
 21
177.3912048413078
 31
0.0
  0
LINE
  5
5958
330
432D
100
AcDbEntity
  8
0
370
    -3
100
AcDbLine
 10
804.8611292820913
 20
177.3518348413092
 30
0.0
 11
804.927820921757
 21
177.3518348413092
 31
0.0
  0
ARC
  5
5959
330
432D
100
AcDbEntity
  8
0
  6
AM_ISO02W050x2
 62
     4
370
    13
100
AcDbCircle
 10
804.8611292820913
 20
177.4108898413144
 30
0.0
 40
0.019685
100
AcDbArc
 50
206.5970704328152
 51
270.0
1001
GENIUS_GENODEF_13
1002
{
1000
HIER
1070
     0
1002
}
1002
{
1000
MANEDIT
1070
     0
1002
}
1002
{
1000
NOSEL
1070
     0
1002
}
1002
{
1000
BEHIND
1070
     0
1002
}
1002
{
1000
OTHER
1070
     0
1002
}
1002
{
1000
REACTOR
1002
}
1001
GENIUS_GENOBJ-N-FIL_13
1002
{
1000
OWNER
1000
GEN
1002
}
  0
ARC
  5
595A
330
432D
100
AcDbEntity
  8
0
370
    -3
100
AcDbCircle
 10
804.8611292820913
 20
177.4108898413144
 30
0.0
 40
0.059055
100
AcDbArc
 50
206.5970704328152
 51
270.0
1001
GENIUS_GENODEF_13
1002
{
1000
HIER
1070
     0
1002
}
1002
{
1000
MANEDIT
1070
     0
1002
}
1002
{
1000
NOSEL
1070
     0
1002
}
1002
{
1000
BEHIND
1070
     0
1002
}
1002
{
1000
OTHER
1070
     0
1002
}
1002
{
1000
REACTOR
1002
}
1001
GENIUS_GENOBJ-N-FIL_13
1002
{
1000
OWNER
1000
GEN
1002
}
  0
LINE
  5
595B
330
432D
100
AcDbEntity
  8
0
  6
AM_ISO02W050x2
 62
     4
370
    13
100
AcDbLine
 10
804.7912905059181
 20
177.506404604621
 30
0.0
 11
804.8435274052952
 21
177.4020766036449
 31
0.0
  0
LINE
  5
595C
330
432D
100
AcDbEntity
  8
0
370
    -3
100
AcDbLine
 10
804.7560867523184
 20
177.4887781293112
 30
0.0
 11
804.8083236516884
 21
177.3844501283349
 31
0.0
  0
LINE
  5
595D
330
432D
100
AcDbEntity
  8
0
  6
AM_ISO02W050x2
 62
     4
370
    13
100
AcDbLine
 10
782.6258356026571
 20
181.3085198413066
 30
0.0
 11
782.9816347967261
 21
181.3085198413066
 31
0.0
  0
LINE
  5
595E
330
432D
100
AcDbEntity
  8
0
370
    -3
100
AcDbLine
 10
782.6258356026571
 20
181.2691498413079
 30
0.0
 11
782.9854577604471
 21
181.2691498413079
 31
0.0
  0
ARC
  5
595F
330
432D
100
AcDbEntity
  8
0
  6
AM_ISO02W050x2
 62
     4
370
    13
100
AcDbCircle
 10
782.6258356026571
 20
181.3282048413132
 30
0.0
 40
0.019685
100
AcDbArc
 50
213.690067531993
 51
270.0
1001
GENIUS_GENODEF_13
1002
{
1000
HIER
1070
     0
1002
}
1002
{
1000
MANEDIT
1070
     0
1002
}
1002
{
1000
NOSEL
1070
     0
1002
}
1002
{
1000
BEHIND
1070
     0
1002
}
1002
{
1000
OTHER
1070
     0
1002
}
1002
{
1000
REACTOR
1002
}
1001
GENIUS_GENOBJ-N-FIL_13
1002
{
1000
OWNER
1000
GEN
1002
}
  0
ARC
  5
5960
330
432D
100
AcDbEntity
  8
0
370
    -3
100
AcDbCircle
 10
782.6258356026571
 20
181.3282048413132
 30
0.0
 40
0.059055
100
AcDbArc
 50
213.690067531993
 51
270.0
1001
GENIUS_GENODEF_13
1002
{
1000
HIER
1070
     0
1002
}
1002
{
1000
MANEDIT
1070
     0
1002
}
1002
{
1000
NOSEL
1070
     0
1002
}
1002
{
1000
BEHIND
1070
     0
1002
}
1002
{
1000
OTHER
1070
     0
1002
}
1002
{
1000
REACTOR
1002
}
1001
GENIUS_GENOBJ-N-FIL_13
1002
{
1000
OWNER
1000
GEN
1002
}
  0
LINE
  5
5961
330
432D
100
AcDbEntity
  8
0
  6
AM_ISO02W050x2
 62
     4
370
    13
100
AcDbLine
 10
782.9816347967261
 20
181.3085198413066
 30
0.0
 11
799.1693294605336
 21
181.3085198413066
 31
0.0
  0
LINE
  5
5962
330
432D
100
AcDbEntity
  8
0
  6
AM_ISO02W050x2
 62
     4
370
    -3
100
AcDbLine
 10
799.1731483607996
 20
181.3085198413066
 30
0.0
 11
799.9973487967268
 21
181.3085198413066
 31
0.0
  0
ARC
  5
5963
330
432D
100
AcDbEntity
  8
0
  6
AM_ISO02W050x2
 62
     4
370
    13
100
AcDbCircle
 10
799.1731483607996
 20
181.072299841315
 30
0.0
 40
0.23622
100
AcDbArc
 50
90.0
 51
176.0000000021999
1001
GENIUS_GENODEF_13
1002
{
1000
HIER
1070
     0
1002
}
1002
{
1000
MANEDIT
1070
     0
1002
}
1002
{
1000
NOSEL
1070
     0
1002
}
1002
{
1000
BEHIND
1070
     0
1002
}
1002
{
1000
OTHER
1070
     0
1002
}
1002
{
1000
REACTOR
1002
}
1001
GENIUS_GENOBJ-N-FIL_13
1002
{
1000
OWNER
1000
GEN
1002
}
  0
ARC
  5
5964
330
432D
100
AcDbEntity
  8
0
370
    -3
100
AcDbCircle
 10
799.1731483607996
 20
181.072299841315
 30
0.0
 40
0.19685
100
AcDbArc
 50
90.0
 51
176.0000000021999
1001
GENIUS_GENODEF_13
1002
{
1000
HIER
1070
     0
1002
}
1002
{
1000
MANEDIT
1070
     0
1002
}
1002
{
1000
NOSEL
1070
     0
1002
}
1002
{
1000
BEHIND
1070
     0
1002
}
1002
{
1000
OTHER
1070
     0
1002
}
1002
{
1000
REACTOR
1002
}
1001
GENIUS_GENOBJ-N-FIL_13
1002
{
1000
OWNER
1000
GEN
1002
}
  0
LINE
  5
5965
330
432D
100
AcDbEntity
  8
0
370
    -3
100
AcDbLine
 10
799.1693294605336
 20
181.2691498413079
 30
0.0
 11
800.0011717604481
 21
181.2691498413079
 31
0.0
  0
LINE
  5
5966
330
432D
100
AcDbEntity
  8
0
  6
AM_ISO02W050x2
 62
     4
370
    13
100
AcDbLine
 10
800.0011717604481
 20
181.3085198413066
 30
0.0
 11
813.4300062240196
 21
181.3085198413066
 31
0.0
  0
LINE
  5
5967
330
432D
100
AcDbEntity
  8
0
  6
AM_ISO02W050x2
 62
     4
370
    13
100
AcDbLine
 10
813.4300062240196
 20
181.3085198413066
 30
0.0
 11
813.7858054180885
 21
181.3085198413066
 31
0.0
  0
ARC
  5
5968
330
432D
100
AcDbEntity
  8
0
  6
AM_ISO02W050x2
 62
     4
370
    13
100
AcDbCircle
 10
813.4300062240196
 20
181.072299841315
 30
0.0
 40
0.23622
100
AcDbArc
 50
90.0
 51
176.0000000021999
1001
GENIUS_GENODEF_13
1002
{
1000
HIER
1070
     0
1002
}
1002
{
1000
MANEDIT
1070
     0
1002
}
1002
{
1000
NOSEL
1070
     0
1002
}
1002
{
1000
BEHIND
1070
     0
1002
}
1002
{
1000
OTHER
1070
     0
1002
}
1002
{
1000
REACTOR
1002
}
1001
GENIUS_GENOBJ-N-FIL_13
1002
{
1000
OWNER
1000
GEN
1002
}
  0
ARC
  5
5969
330
432D
100
AcDbEntity
  8
0
370
    -3
100
AcDbCircle
 10
813.4300062240196
 20
181.072299841315
 30
0.0
 40
0.19685
100
AcDbArc
 50
90.0
 51
176.0000000021999
1001
GENIUS_GENODEF_13
1002
{
1000
HIER
1070
     0
1002
}
1002
{
1000
MANEDIT
1070
     0
1002
}
1002
{
1000
NOSEL
1070
     0
1002
}
1002
{
1000
BEHIND
1070
     0
1002
}
1002
{
1000
OTHER
1070
     0
1002
}
1002
{
1000
REACTOR
1002
}
1001
GENIUS_GENOBJ-N-FIL_13
1002
{
1000
OWNER
1000
GEN
1002
}
  0
LINE
  5
596A
330
432D
100
AcDbEntity
  8
0
370
    -3
100
AcDbLine
 10
813.4261832602986
 20
181.2691498413079
 30
0.0
 11
813.7858054180885
 21
181.2691498413079
 31
0.0
  0
LINE
  5
596B
330
432D
100
AcDbEntity
  8
0
370
    -3
100
AcDbLine
 10
781.8452971111088
 20
181.5447398413128
 30
0.0
 11
782.4262152335193
 21
181.5447398413128
 31
0.0
  0
LINE
  5
596C
330
432D
100
AcDbEntity
  8
0
  6
AM_ISO02W050x2
 62
     4
370
    13
100
AcDbLine
 10
781.8452971111088
 20
181.5053698413142
 30
0.0
 11
782.4262152335193
 21
181.5053698413142
 31
0.0
  0
ARC
  5
596D
102
{ACAD_REACTORS
330
59AC
102
}
330
432D
100
AcDbEntity
  8
0
370
    -3
100
AcDbCircle
 10
781.8452971111088
 20
181.426629841317
 30
0.0
 40
0.11811
100
AcDbArc
 50
90.0
 51
141.3401917456505
1001
GENIUS_GENODEF_13
1002
{
1000
HIER
1070
     0
1002
}
1002
{
1000
MANEDIT
1070
     0
1002
}
1002
{
1000
NOSEL
1070
     0
1002
}
1002
{
1000
BEHIND
1070
     0
1002
}
1002
{
1000
OTHER
1070
     0
1002
}
1002
{
1000
REACTOR
1002
}
1001
GENIUS_GENOBJ-N-FIL_13
1002
{
1000
OWNER
1000
GEN
1002
}
  0
ARC
  5
596E
330
432D
100
AcDbEntity
  8
0
  6
AM_ISO02W050x2
 62
     4
370
    13
100
AcDbCircle
 10
781.8452971111088
 20
181.426629841317
 30
0.0
 40
0.07874
100
AcDbArc
 50
90.0
 51
141.3401917456505
1001
GENIUS_GENODEF_13
1002
{
1000
HIER
1070
     0
1002
}
1002
{
1000
MANEDIT
1070
     0
1002
}
1002
{
1000
NOSEL
1070
     0
1002
}
1002
{
1000
BEHIND
1070
     0
1002
}
1002
{
1000
OTHER
1070
     0
1002
}
1002
{
1000
REACTOR
1002
}
1001
GENIUS_GENOBJ-N-FIL_13
1002
{
1000
OWNER
1000
GEN
1002
}
  0
LINE
  5
596F
330
432D
100
AcDbEntity
  8
0
370
    -3
100
AcDbLine
 10
782.4262152335193
 20
181.5447398413128
 30
0.0
 11
813.9854257872336
 21
181.5447398413128
 31
0.0
  0
LINE
  5
5970
330
432D
100
AcDbEntity
  8
0
370
    -3
100
AcDbLine
 10
813.9854257872336
 20
181.5447398413128
 30
0.0
 11
814.5663439096367
 21
181.5447398413128
 31
0.0
  0
LINE
  5
5971
330
432D
100
AcDbEntity
  8
0
  6
AM_ISO02W050x2
 62
     4
370
    13
100
AcDbLine
 10
813.9854257872336
 20
181.5053698413142
 30
0.0
 11
814.5663439096367
 21
181.5053698413142
 31
0.0
  0
ARC
  5
5972
330
432D
100
AcDbEntity
  8
0
  6
AM_ISO02W050x2
 62
     4
370
    13
100
AcDbCircle
 10
813.9854257872336
 20
181.4856848413076
 30
0.0
 40
0.059055
100
AcDbArc
 50
90.0
 51
146.309932468007
1001
GENIUS_GENODEF_13
1002
{
1000
HIER
1070
     0
1002
}
1002
{
1000
MANEDIT
1070
     0
1002
}
1002
{
1000
NOSEL
1070
     0
1002
}
1002
{
1000
BEHIND
1070
     0
1002
}
1002
{
1000
OTHER
1070
     0
1002
}
1002
{
1000
REACTOR
1002
}
1001
GENIUS_GENOBJ-N-FIL_13
1002
{
1000
OWNER
1000
GEN
1002
}
  0
ARC
  5
5973
330
432D
100
AcDbEntity
  8
0
  6
AM_ISO02W050x2
 62
     4
370
    13
100
AcDbCircle
 10
813.9854257872336
 20
181.4856848413076
 30
0.0
 40
0.019685
100
AcDbArc
 50
90.0
 51
146.309932468007
1001
GENIUS_GENODEF_13
1002
{
1000
HIER
1070
     0
1002
}
1002
{
1000
MANEDIT
1070
     0
1002
}
1002
{
1000
NOSEL
1070
     0
1002
}
1002
{
1000
BEHIND
1070
     0
1002
}
1002
{
1000
OTHER
1070
     0
1002
}
1002
{
1000
REACTOR
1002
}
1001
GENIUS_GENOBJ-N-FIL_13
1002
{
1000
OWNER
1000
GEN
1002
}
  0
LINE
  5
5974
330
432D
100
AcDbEntity
  8
0
370
    -3
100
AcDbLine
 10
781.7530686960288
 20
181.5004125733724
 30
0.0
 11
781.6141382175754
 21
181.3267494753129
 31
0.0
  0
LINE
  5
5975
330
432D
100
AcDbEntity
  8
0
  6
AM_ISO02W050x2
 62
     4
370
    13
100
AcDbLine
 10
781.7838115010579
 20
181.475818329349
 30
0.0
 11
781.6448810225972
 21
181.3021552312896
 31
0.0
  0
LINE
  5
5976
330
432D
100
AcDbEntity
  8
0
  6
AM_ISO02W050x2
 62
     4
370
    13
100
AcDbLine
 10
782.6094566926164
 20
181.3172855679479
 30
0.0
 11
782.4753519636487
 21
181.5184426614034
 31
0.0
  0
LINE
  5
5977
330
432D
100
AcDbEntity
  8
0
  6
AM_ISO02W050x2
 62
     4
370
    13
100
AcDbLine
 10
782.5766988725279
 20
181.2954470212173
 30
0.0
 11
782.44259414356
 21
181.4966041146729
 31
0.0
  0
ARC
  5
5978
330
432D
100
AcDbEntity
  8
0
  6
AM_ISO02W050x2
 62
     4
370
    13
100
AcDbCircle
 10
782.4262152335193
 20
181.4856848413076
 30
0.0
 40
0.059055
100
AcDbArc
 50
33.69006753199299
 51
90.0
1001
GENIUS_GENOBJ-N-FIL_13
1002
{
1000
OWNER
1000
GEN
1002
}
1001
GENIUS_GENODEF_13
1002
{
1000
HIER
1070
     0
1002
}
1002
{
1000
MANEDIT
1070
     0
1002
}
1002
{
1000
NOSEL
1070
     0
1002
}
1002
{
1000
BEHIND
1070
     0
1002
}
1002
{
1000
OTHER
1070
     0
1002
}
1002
{
1000
REACTOR
1002
}
  0
ARC
  5
5979
330
432D
100
AcDbEntity
  8
0
  6
AM_ISO02W050x2
 62
     4
370
    -3
100
AcDbCircle
 10
782.4262152335193
 20
181.4856848413076
 30
0.0
 40
0.019685
100
AcDbArc
 50
33.69006753199299
 51
90.0
1001
GENIUS_GENOBJ-N-FIL_13
1002
{
1000
OWNER
1000
GEN
1002
}
1001
GENIUS_GENODEF_13
1002
{
1000
HIER
1070
     0
1002
}
1002
{
1000
MANEDIT
1070
     0
1002
}
1002
{
1000
NOSEL
1070
     0
1002
}
1002
{
1000
BEHIND
1070
     0
1002
}
1002
{
1000
OTHER
1070
     0
1002
}
1002
{
1000
REACTOR
1002
}
  0
LINE
  5
597A
330
432D
100
AcDbEntity
  8
0
370
    -3
100
AcDbLine
 10
814.6585723247241
 20
181.5004125733724
 30
0.0
 11
814.7975028031776
 21
181.3267494753129
 31
0.0
  0
LINE
  5
597B
330
432D
100
AcDbEntity
  8
0
  6
AM_ISO02W050x2
 62
     4
370
    13
100
AcDbLine
 10
814.627829519695
 20
181.475818329349
 30
0.0
 11
814.7667599981485
 21
181.3021552312896
 31
0.0
  0
ARC
  5
597C
102
{ACAD_REACTORS
330
59A9
102
}
330
432D
100
AcDbEntity
  8
0
370
    -3
100
AcDbCircle
 10
814.5663439096367
 20
181.426629841317
 30
0.0
 40
0.11811
100
AcDbArc
 50
38.65980825434947
 51
90.0
1001
GENIUS_GENODEF_13
1002
{
1000
HIER
1070
     0
1002
}
1002
{
1000
MANEDIT
1070
     0
1002
}
1002
{
1000
NOSEL
1070
     0
1002
}
1002
{
1000
BEHIND
1070
     0
1002
}
1002
{
1000
OTHER
1070
     0
1002
}
1002
{
1000
REACTOR
1002
}
1001
GENIUS_GENOBJ-N-FIL_13
1002
{
1000
OWNER
1000
GEN
1002
}
  0
ARC
  5
597D
330
432D
100
AcDbEntity
  8
0
  6
AM_ISO02W050x2
 62
     4
370
    13
100
AcDbCircle
 10
814.5663439096367
 20
181.426629841317
 30
0.0
 40
0.07874
100
AcDbArc
 50
38.65980825434947
 51
90.0
1001
GENIUS_GENODEF_13
1002
{
1000
HIER
1070
     0
1002
}
1002
{
1000
MANEDIT
1070
     0
1002
}
1002
{
1000
NOSEL
1070
     0
1002
}
1002
{
1000
BEHIND
1070
     0
1002
}
1002
{
1000
OTHER
1070
     0
1002
}
1002
{
1000
REACTOR
1002
}
1001
GENIUS_GENOBJ-N-FIL_13
1002
{
1000
OWNER
1000
GEN
1002
}
  0
LINE
  5
597E
330
432D
100
AcDbEntity
  8
0
  6
AM_ISO02W050x2
 62
     4
370
    13
100
AcDbLine
 10
813.8021843281364
 20
181.3172855679479
 30
0.0
 11
813.9362890570971
 21
181.5184426614034
 31
0.0
  0
LINE
  5
597F
330
432D
100
AcDbEntity
  8
0
  6
AM_ISO02W050x2
 62
     4
370
    13
100
AcDbLine
 10
813.8349421482178
 20
181.2954470212173
 30
0.0
 11
813.9690468771856
 21
181.4966041146729
 31
0.0
  0
ARC
  5
5980
330
432D
100
AcDbEntity
  8
0
  6
AM_ISO02W050x2
 62
     4
370
    -3
100
AcDbCircle
 10
813.7858054180885
 20
181.3282048413132
 30
0.0
 40
0.019685
100
AcDbArc
 50
270.0
 51
326.309932468007
1001
GENIUS_GENODEF_13
1002
{
1000
HIER
1070
     0
1002
}
1002
{
1000
MANEDIT
1070
     0
1002
}
1002
{
1000
NOSEL
1070
     0
1002
}
1002
{
1000
BEHIND
1070
     0
1002
}
1002
{
1000
OTHER
1070
     0
1002
}
1002
{
1000
REACTOR
1002
}
1001
GENIUS_GENOBJ-N-FIL_13
1002
{
1000
OWNER
1000
GEN
1002
}
  0
ARC
  5
5981
330
432D
100
AcDbEntity
  8
0
370
    -3
100
AcDbCircle
 10
813.7858054180885
 20
181.3282048413132
 30
0.0
 40
0.059055
100
AcDbArc
 50
270.0
 51
326.309932468007
1001
GENIUS_GENODEF_13
1002
{
1000
HIER
1070
     0
1002
}
1002
{
1000
MANEDIT
1070
     0
1002
}
1002
{
1000
NOSEL
1070
     0
1002
}
1002
{
1000
BEHIND
1070
     0
1002
}
1002
{
1000
OTHER
1070
     0
1002
}
1002
{
1000
REACTOR
1002
}
1001
GENIUS_GENOBJ-N-FIL_13
1002
{
1000
OWNER
1000
GEN
1002
}
  0
LINE
  5
5982
330
432D
100
AcDbEntity
  8
0
370
    -3
100
AcDbLine
 10
795.2728917118272
 20
181.3085198413066
 30
0.0
 11
795.2728917118272
 21
181.426629841317
 31
0.0
  0
LINE
  5
5983
330
432D
100
AcDbEntity
  8
0
  6
AM_ISO02W050x2
 62
     4
370
    13
100
AcDbLine
 10
795.2728917118272
 20
181.426629841317
 30
0.0
 11
813.8750805103752
 21
181.426629841317
 31
0.0
  0
LINE
  5
5984
330
432D
100
AcDbEntity
  8
0
370
    -3
100
AcDbLine
 10
781.6448810225972
 20
181.3021552312896
 30
0.0
 11
782.572226732487
 21
181.3021552312896
 31
0.0
  0
LINE
  5
5985
330
432D
100
AcDbEntity
  8
0
370
    -3
100
AcDbLine
 10
814.7667599981485
 20
181.3021552312896
 30
0.0
 11
782.572226732487
 21
181.3021552312896
 31
0.0
  0
LINE
  5
5986
330
432D
100
AcDbEntity
  8
0
  6
AM_ISO02W050x2
 62
     4
370
    13
100
AcDbLine
 10
789.2900569217577
 20
175.851837841303
 30
0.0
 11
789.2900569217577
 21
175.8912078413161
 31
0.0
  0
LINE
  5
5987
330
432D
100
AcDbEntity
  8
0
  6
AM_ISO02W050x2
 62
     4
370
    13
100
AcDbLine
 10
798.9375037808473
 20
181.0887777155333
 30
0.0
 11
798.7461339646378
 21
178.3520618423247
 31
0.0
  0
LINE
  5
5988
330
432D
100
AcDbEntity
  8
0
370
    -3
100
AcDbLine
 10
798.9767778775037
 20
181.0860314031636
 30
0.0
 11
798.7854080612939
 21
178.3493155299404
 31
0.0
  0
ARC
  5
5989
330
432D
100
AcDbEntity
  8
0
  6
AM_ISO02W050x2
 62
     4
370
    13
100
AcDbCircle
 10
791.0773936104939
 20
294.1426713120056
 30
0.0
 40
118.11
100
AcDbArc
 50
270.9667372668461
 51
272.6305382335086
  0
ARC
  5
598A
330
432D
100
AcDbEntity
  8
0
  6
AM_ISO02W050x2
 62
     4
370
    13
100
AcDbCircle
 10
796.3896881651143
 20
178.5168405845945
 30
0.0
 40
2.3622
100
AcDbArc
 50
272.6305382335086
 51
356.0000000021998
1001
GENIUS_GENODEF_13
1002
{
1000
HIER
1070
     0
1002
}
1002
{
1000
MANEDIT
1070
     0
1002
}
1002
{
1000
NOSEL
1070
     0
1002
}
1002
{
1000
BEHIND
1070
     0
1002
}
1002
{
1000
OTHER
1070
     0
1002
}
1002
{
1000
REACTOR
1002
}
1001
GENIUS_GENOBJ-N-FIL_13
1002
{
1000
OWNER
1000
GEN
1002
}
  0
ARC
  5
598B
330
432D
100
AcDbEntity
  8
0
  6
AM_ISO02W050x2
 62
     4
370
    13
100
AcDbCircle
 10
793.0714678493728
 20
175.9707544674495
 30
0.0
 40
0.07874
100
AcDbArc
 50
90.96673726684617
 51
153.4029295671848
1001
GENIUS_GENODEF_13
1002
{
1000
HIER
1070
     0
1002
}
1002
{
1000
MANEDIT
1070
     0
1002
}
1002
{
1000
NOSEL
1070
     0
1002
}
1002
{
1000
BEHIND
1070
     0
1002
}
1002
{
1000
OTHER
1070
     0
1002
}
1002
{
1000
REACTOR
1002
}
1001
GENIUS_GENOBJ-N-FIL_13
1002
{
1000
OWNER
1000
GEN
1002
}
  0
ARC
  5
598C
330
432D
100
AcDbEntity
  8
0
370
    -3
100
AcDbCircle
 10
793.0714678493728
 20
175.9707544674495
 30
0.0
 40
0.03937
100
AcDbArc
 50
90.96673726684617
 51
153.4029295671848
1001
GENIUS_GENODEF_13
1002
{
1000
HIER
1070
     0
1002
}
1002
{
1000
MANEDIT
1070
     0
1002
}
1002
{
1000
NOSEL
1070
     0
1002
}
1002
{
1000
BEHIND
1070
     0
1002
}
1002
{
1000
OTHER
1070
     0
1002
}
1002
{
1000
REACTOR
1002
}
1001
GENIUS_GENOBJ-N-FIL_13
1002
{
1000
OWNER
1000
GEN
1002
}
  0
ARC
  5
598D
330
432D
100
AcDbEntity
  8
0
370
    -3
100
AcDbCircle
 10
791.0773936104939
 20
294.1426713120056
 30
0.0
 40
118.14937
100
AcDbArc
 50
270.9667372668461
 51
272.6305382335086
  0
ARC
  5
598E
330
432D
100
AcDbEntity
  8
0
370
    -3
100
AcDbCircle
 10
796.3896881651143
 20
178.5168405845945
 30
0.0
 40
2.401569999999999
100
AcDbArc
 50
272.6305382335086
 51
356.0000000021998
1001
GENIUS_GENODEF_13
1002
{
1000
HIER
1070
     0
1002
}
1002
{
1000
MANEDIT
1070
     0
1002
}
1002
{
1000
NOSEL
1070
     0
1002
}
1002
{
1000
BEHIND
1070
     0
1002
}
1002
{
1000
OTHER
1070
     0
1002
}
1002
{
1000
REACTOR
1002
}
1001
GENIUS_GENOBJ-N-FIL_13
1002
{
1000
OWNER
1000
GEN
1002
}
  0
LINE
  5
598F
330
432D
100
AcDbEntity
  8
0
  6
AM_ISO02W050x2
 62
     4
370
    13
100
AcDbLine
 10
792.8647302992227
 20
175.8912078413161
 30
0.0
 11
789.2930171219902
 21
175.8912078413161
 31
0.0
  0
LINE
  5
5990
330
432D
100
AcDbEntity
  8
0
370
    -3
100
AcDbLine
 10
792.8647302992227
 20
175.851837841303
 30
0.0
 11
789.2930171219902
 21
175.851837841303
 31
0.0
  0
LINE
  5
5991
330
432D
100
AcDbEntity
  8
0
  6
AM_ISO02W050x2
 62
     4
370
    13
100
AcDbLine
 10
793.0602261039872
 20
176.0486878413105
 30
0.0
 11
789.0945611169934
 21
176.0486878413105
 31
0.0
  0
LINE
  5
5992
330
432D
100
AcDbEntity
  8
0
  6
AM_ISO02W050x2
 62
     4
370
    13
100
AcDbLine
 10
792.9314219388885
 20
175.8912078413161
 30
0.0
 11
792.8647302992227
 21
175.8912078413161
 31
0.0
  0
LINE
  5
5993
330
432D
100
AcDbEntity
  8
0
370
    -3
100
AcDbLine
 10
792.9314219388885
 20
175.851837841303
 30
0.0
 11
792.8647302992227
 21
175.851837841303
 31
0.0
  0
ARC
  5
5994
330
432D
100
AcDbEntity
  8
0
  6
AM_ISO02W050x2
 62
     4
370
    13
100
AcDbCircle
 10
792.9314219388885
 20
175.9108928413081
 30
0.0
 40
0.019685
100
AcDbArc
 50
270.0
 51
333.4029295671848
1001
GENIUS_GENODEF_13
1002
{
1000
HIER
1070
     0
1002
}
1002
{
1000
MANEDIT
1070
     0
1002
}
1002
{
1000
NOSEL
1070
     0
1002
}
1002
{
1000
BEHIND
1070
     0
1002
}
1002
{
1000
OTHER
1070
     0
1002
}
1002
{
1000
REACTOR
1002
}
1001
GENIUS_GENOBJ-N-FIL_13
1002
{
1000
OWNER
1000
GEN
1002
}
  0
ARC
  5
5995
330
432D
100
AcDbEntity
  8
0
370
    -3
100
AcDbCircle
 10
792.9314219388885
 20
175.9108928413081
 30
0.0
 40
0.059055
100
AcDbArc
 50
270.0
 51
333.4029295671848
1001
GENIUS_GENODEF_13
1002
{
1000
HIER
1070
     0
1002
}
1002
{
1000
MANEDIT
1070
     0
1002
}
1002
{
1000
NOSEL
1070
     0
1002
}
1002
{
1000
BEHIND
1070
     0
1002
}
1002
{
1000
OTHER
1070
     0
1002
}
1002
{
1000
REACTOR
1002
}
1001
GENIUS_GENOBJ-N-FIL_13
1002
{
1000
OWNER
1000
GEN
1002
}
  0
LINE
  5
5996
330
432D
100
AcDbEntity
  8
0
  6
AM_ISO02W050x2
 62
     4
370
    13
100
AcDbLine
 10
793.0010603421667
 20
176.0060074180985
 30
0.0
 11
792.9490238156919
 21
175.9020796036532
 31
0.0
  0
LINE
  5
5997
330
432D
100
AcDbEntity
  8
0
370
    -3
100
AcDbLine
 10
793.0362640957735
 20
175.988380942774
 30
0.0
 11
792.9842275692915
 21
175.8844531283287
 31
0.0
  0
LINE
  5
5998
330
432D
100
AcDbEntity
  8
0
  6
AM_ISO02W050x2
 62
     4
370
    13
100
AcDbLine
 10
792.8647302992227
 20
175.851837841303
 30
0.0
 11
792.8647302992227
 21
175.8912078413161
 31
0.0
  0
LINE
  5
5999
330
432D
100
AcDbEntity
  8
0
370
    -3
100
AcDbLine
 10
814.7975028031776
 20
181.3267494753129
 30
0.0
 11
814.7667599981485
 21
181.3021552312896
 31
0.0
  0
LINE
  5
599A
330
432D
100
AcDbEntity
  8
0
  6
AM_ISO02W050x2
 62
     4
370
    13
100
AcDbLine
 10
781.6141382175754
 20
181.3267494753129
 30
0.0
 11
781.6448810225972
 21
181.3021552312896
 31
0.0
  0
LINE
  5
599B
330
432D
100
AcDbEntity
  8
0
  6
AM_ISO02W050x2
 62
     4
370
    13
100
AcDbLine
 10
808.4995340989895
 20
177.3912048413078
 30
0.0
 11
808.4995340989895
 21
177.3518348413092
 31
0.0
  0
LINE
  5
599C
330
432D
100
AcDbEntity
  8
0
  6
AM_ISO02W050x2
 62
     4
370
    13
100
AcDbLine
 10
804.927820921757
 20
177.3518348413092
 30
0.0
 11
804.927820921757
 21
177.3912048413078
 31
0.0
  0
LINE
  5
599D
330
432D
100
AcDbEntity
  8
0
370
    -3
100
AcDbLine
 10
804.7218791398824
 20
177.5105090497711
 30
0.0
 11
808.7080362160465
 21
177.5104989301364
 31
0.0
  0
LINE
  5
599E
330
432D
100
AcDbEntity
  8
0
370
    -3
100
AcDbLine
 10
789.0839836201901
 20
176.0101188634764
 30
0.0
 11
793.0708036011251
 21
176.0101188634764
 31
0.0
  0
ARC
  5
599F
330
432D
100
AcDbEntity
  8
0
370
    -3
100
AcDbCircle
 10
851.3986275103723
 20
155.0513847491131
 30
0.0
 40
51.181
100
AcDbArc
 50
174.4700400440474
 51
185.5299599559526
  0
ARC
  5
59A0
330
432D
100
AcDbEntity
  8
0
  6
AM_ISO02W050x2
 62
     4
370
    -3
100
AcDbCircle
 10
806.7151576104931
 20
256.2646580105395
 30
0.0
 40
78.74000000000008
100
AcDbArc
 50
271.4495636959286
 51
273.0280507115494
  0
ARC
  5
59A1
330
432D
100
AcDbEntity
  8
0
  6
AM_ISO02W050x2
 62
     4
370
    -3
100
AcDbCircle
 10
810.7498039221006
 20
179.9934972616649
 30
0.0
 40
2.3622
100
AcDbArc
 50
273.0280507115494
 51
356.0000000021998
1001
GENIUS_GENODEF_13
1002
{
1000
HIER
1070
     0
1002
}
1002
{
1000
MANEDIT
1070
     0
1002
}
1002
{
1000
NOSEL
1070
     0
1002
}
1002
{
1000
BEHIND
1070
     0
1002
}
1002
{
1000
OTHER
1070
     0
1002
}
1002
{
1000
REACTOR
1002
}
1001
GENIUS_GENOBJ-N-FIL_13
1002
{
1000
OWNER
1000
GEN
1002
}
  0
ARC
  5
59A2
330
432D
100
AcDbEntity
  8
0
370
    -3
100
AcDbCircle
 10
806.7151576104931
 20
256.2646580105395
 30
0.0
 40
78.77937000000007
100
AcDbArc
 50
271.4495636959286
 51
273.0280507115494
  0
ARC
  5
59A3
330
432D
100
AcDbEntity
  8
0
370
    -3
100
AcDbCircle
 10
810.7498039221006
 20
179.9934972616649
 30
0.0
 40
2.401569999999999
100
AcDbArc
 50
273.0280507115494
 51
356.0000000021998
1001
GENIUS_GENODEF_13
1002
{
1000
HIER
1070
     0
1002
}
1002
{
1000
MANEDIT
1070
     0
1002
}
1002
{
1000
NOSEL
1070
     0
1002
}
1002
{
1000
BEHIND
1070
     0
1002
}
1002
{
1000
OTHER
1070
     0
1002
}
1002
{
1000
REACTOR
1002
}
1001
GENIUS_GENOBJ-N-FIL_13
1002
{
1000
OWNER
1000
GEN
1002
}
  0
DIMENSION
  5
59A4
102
{ACAD_XDICTIONARY
360
59A5
102
}
102
{ACAD_REACTORS
330
59A6
102
}
330
432D
100
AcDbEntity
  8
0
100
AcDbDimension
  2
*D67
 10
814.7805905103721
 20
141.1220414338497
 30
0.0
 11
798.2058205103727
 21
141.1220414338497
 31
0.0
 70
    32
 71
     5
 42
33.14953999999853
  3
副本STANDARD
100
AcDbAlignedDimension
 13
781.6310505103737
 23
146.5080947491262
 33
0.0
 14
814.7805905103721
 24
146.5080947491262
 34
0.0
100
AcDbRotatedDimension
1001
ACAD
1000
DSTYLE
1002
{
1070
    49
1040
1.25
1070
    50
1040
1.570796326794896
1070
    90
1070
     1
1002
}
  0
DIMENSION
  5
59A7
102
{ACAD_XDICTIONARY
360
59A8
102
}
102
{ACAD_REACTORS
330
59A9
102
}
330
432D
100
AcDbEntity
  8
0
100
AcDbDimension
  2
*D68
 10
816.0634621525366
 20
177.5604958413062
 30
0.0
 11
816.0634621525366
 21
179.5526178413096
 31
0.0
 70
    32
 71
     5
 42
3.984244000006582
  3
副本STANDARD
100
AcDbAlignedDimension
 13
814.5663439096367
 23
181.5447398413128
 33
0.0
 14
814.5663439096367
 24
177.5604958413062
 34
0.0
 50
90.0
100
AcDbRotatedDimension
1001
ACAD
1000
DSTYLE
1002
{
1070
    49
1040
1.25
1070
    50
1040
1.570796326794896
1070
    90
1070
     1
1002
}
  0
DIMENSION
  5
59AA
102
{ACAD_XDICTIONARY
360
59AB
102
}
102
{ACAD_REACTORS
330
59AC
102
}
330
432D
100
AcDbEntity
  8
0
100
AcDbDimension
  2
*D69
 10
780.468246240043
 20
176.0329398413053
 30
0.0
 11
780.468246240043
 21
178.7888398413091
 31
0.0
 70
    32
 71
     5
 42
5.511800000007497
  3
副本STANDARD
100
AcDbAlignedDimension
 13
781.8452971111088
 23
181.5447398413128
 33
0.0
 14
781.8452971111088
 24
176.0329398413053
 34
0.0
 50
90.0
100
AcDbRotatedDimension
1001
ACAD
1000
DSTYLE
1002
{
1070
    49
1040
1.25
1070
    50
1040
1.570796326794896
1070
    90
1070
     1
1002
}
  0
ARC
  5
59AD
330
432D
100
AcDbEntity
  8
0
370
    -3
100
AcDbCircle
 10
728.0839135103723
 20
118.1238238558848
 30
0.0
 40
70.866
100
AcDbArc
 50
355.4703238715165
 51
4.529676128483457
  0
ARC
  5
59AE
330
432D
100
AcDbEntity
  8
0
370
    -3
100
AcDbCircle
 10
791.0759135103778
 20
159.9347638558951
 30
0.0
 40
51.181
100
AcDbArc
 50
265.4741730474632
 51
274.5258269525369
  0
ARC
  5
59AF
330
432D
100
AcDbEntity
  8
0
370
    -3
100
AcDbCircle
 10
854.0679135103761
 20
118.1238238558848
 30
0.0
 40
70.866
100
AcDbArc
 50
175.4703238715164
 51
184.5296761284834
  0
ARC
  5
59B0
330
432D
100
AcDbEntity
  8
0
370
    -3
100
AcDbCircle
 10
791.0759135103778
 20
76.31288385588901
 30
0.0
 40
51.181
100
AcDbArc
 50
85.47417304746318
 51
94.5258269525368
  0
LINE
  5
59B1
330
432D
100
AcDbEntity
  8
0
370
    -3
100
AcDbLine
 10
783.0090005103754
 20
128.9899438558908
 30
0.0
 11
813.4026405103773
 21
128.9899438558908
 31
0.0
  0
LINE
  5
59B2
330
432D
100
AcDbEntity
  8
0
370
    -3
100
AcDbLine
 10
783.4420705103746
 20
128.3206538558855
 30
0.0
 11
812.9695705103708
 21
128.3206538558855
 31
0.0
  0
LINE
  5
59B3
330
432D
100
AcDbEntity
  8
0
370
    -3
100
AcDbLine
 10
795.2728917118272
 20
128.2419138558883
 30
0.0
 11
812.9695705103708
 21
128.2419138558883
 31
0.0
  0
LINE
  5
59B4
330
432D
100
AcDbEntity
  8
0
370
    -3
100
AcDbLine
 10
783.4420705103746
 20
128.1631738558911
 30
0.0
 11
795.2667699642895
 21
128.1631738558911
 31
0.0
  0
LINE
  5
59B5
330
432D
100
AcDbEntity
  8
0
370
    -3
100
AcDbLine
 10
783.0090005103754
 20
107.1002238558843
 30
0.0
 11
813.4026405103773
 21
107.1002238558843
 31
0.0
  0
LINE
  5
59B6
330
432D
100
AcDbEntity
  8
0
370
    -3
100
AcDbLine
 10
783.0090005103754
 20
107.2577038558933
 30
0.0
 11
813.4026405103773
 21
107.2577038558933
 31
0.0
  0
LINE
  5
59B7
330
432D
100
AcDbEntity
  8
0
370
    -3
100
AcDbLine
 10
783.4420705103746
 20
107.926993855884
 30
0.0
 11
812.9695705103708
 21
107.926993855884
 31
0.0
  0
LINE
  5
59B8
330
432D
100
AcDbEntity
  8
0
370
    -3
100
AcDbLine
 10
783.4420705103746
 20
108.0844738558929
 30
0.0
 11
812.9695705103708
 21
108.0844738558929
 31
0.0
  0
ARC
  5
59B9
330
432D
100
AcDbEntity
  8
0
370
    -3
100
AcDbCircle
 10
783.4420705103746
 20
108.9112438558926
 30
0.0
 40
0.9842499999999999
100
AcDbArc
 50
180.0
 51
270.0
  0
ARC
  5
59BA
330
432D
100
AcDbEntity
  8
0
370
    -3
100
AcDbCircle
 10
783.4420705103746
 20
108.9112438558926
 30
0.0
 40
0.8267699999999999
100
AcDbArc
 50
180.0
 51
270.0
  0
ARC
  5
59BB
330
432D
100
AcDbEntity
  8
0
370
    -3
100
AcDbCircle
 10
812.9695705103708
 20
108.9112438558926
 30
0.0
 40
0.9842499999999999
100
AcDbArc
 50
270.0
 51
0.0
  0
ARC
  5
59BC
330
432D
100
AcDbEntity
  8
0
370
    -3
100
AcDbCircle
 10
812.9695705103708
 20
108.9112438558926
 30
0.0
 40
0.8267699999999999
100
AcDbArc
 50
270.0
 51
0.0
  0
ARC
  5
59BD
330
432D
100
AcDbEntity
  8
0
370
    -3
100
AcDbCircle
 10
813.4026405103773
 20
108.4781738558935
 30
0.0
 40
1.37795
100
AcDbArc
 50
270.0
 51
0.0
  0
ARC
  5
59BE
330
432D
100
AcDbEntity
  8
0
370
    -3
100
AcDbCircle
 10
813.4026405103773
 20
108.4781738558935
 30
0.0
 40
1.22047
100
AcDbArc
 50
270.0
 51
0.0
  0
ARC
  5
59BF
330
432D
100
AcDbEntity
  8
0
370
    -3
100
AcDbCircle
 10
783.0090005103754
 20
108.4781738558935
 30
0.0
 40
1.37795
100
AcDbArc
 50
180.0
 51
270.0
  0
ARC
  5
59C0
330
432D
100
AcDbEntity
  8
0
370
    -3
100
AcDbCircle
 10
783.0090005103754
 20
108.4781738558935
 30
0.0
 40
1.22047
100
AcDbArc
 50
180.0
 51
270.0
  0
LINE
  5
59C1
330
432D
100
AcDbEntity
  8
0
370
    -3
100
AcDbLine
 10
814.7805905103721
 20
127.7694738558906
 30
0.0
 11
814.7805905103721
 21
108.4781738558935
 31
0.0
  0
LINE
  5
59C2
330
432D
100
AcDbEntity
  8
0
370
    -3
100
AcDbLine
 10
814.6231105103705
 20
127.7694738558906
 30
0.0
 11
814.6231105103705
 21
108.4781738558935
 31
0.0
  0
LINE
  5
59C3
330
432D
100
AcDbEntity
  8
0
370
    -3
100
AcDbLine
 10
813.9538205103724
 20
127.3364038558915
 30
0.0
 11
813.9538205103724
 21
108.9112438558926
 31
0.0
  0
LINE
  5
59C4
330
432D
100
AcDbEntity
  8
0
370
    -3
100
AcDbLine
 10
813.8750805103752
 20
127.3364038558915
 30
0.0
 11
813.8750805103752
 21
125.2214517822261
 31
0.0
  0
LINE
  5
59C5
330
432D
100
AcDbEntity
  8
0
370
    -3
100
AcDbLine
 10
813.7963405103707
 20
125.2104238558944
 30
0.0
 11
813.7963405103707
 21
108.9112438558926
 31
0.0
  0
ARC
  5
59C6
330
432D
100
AcDbEntity
  8
0
370
    -3
100
AcDbCircle
 10
812.8514605103752
 20
124.9348338558897
 30
0.0
 40
0.9842499999999999
100
AcDbArc
 50
16.26020471433155
 51
90.0
  0
ARC
  5
59C7
330
432D
100
AcDbEntity
  8
0
370
    -3
100
AcDbCircle
 10
812.8514605103752
 20
124.9348338558897
 30
0.0
 40
1.062989999999999
100
AcDbArc
 50
16.26020471433155
 51
90.0
  0
ARC
  5
59C8
330
432D
100
AcDbEntity
  8
0
370
    -3
100
AcDbCircle
 10
812.9695705103708
 20
127.3364038558915
 30
0.0
 40
0.9842499999999999
100
AcDbArc
 50
0.0
 51
90.0
  0
ARC
  5
59C9
330
432D
100
AcDbEntity
  8
0
370
    -3
100
AcDbCircle
 10
812.9695705103708
 20
127.3364038558915
 30
0.0
 40
0.9055099999999999
100
AcDbArc
 50
0.0
 51
90.0
  0
ARC
  5
59CA
330
432D
100
AcDbEntity
  8
0
370
    -3
100
AcDbCircle
 10
813.4026405103773
 20
127.7694738558906
 30
0.0
 40
1.37795
100
AcDbArc
 50
0.0
 51
90.0
  0
ARC
  5
59CB
330
432D
100
AcDbEntity
  8
0
370
    -3
100
AcDbCircle
 10
813.4026405103773
 20
127.7694738558906
 30
0.0
 40
1.22047
100
AcDbArc
 50
0.0
 51
90.0
  0
ARC
  5
59CC
330
432D
100
AcDbEntity
  8
0
370
    -3
100
AcDbCircle
 10
787.3479620637497
 20
123.4095707246282
 30
0.0
 40
3.936999999999999
100
AcDbArc
 50
94.5258269525368
 51
175.4703238715164
  0
ARC
  5
59CD
330
432D
100
AcDbEntity
  8
0
370
    -3
100
AcDbCircle
 10
794.8038649569987
 20
123.4095707246282
 30
0.0
 40
3.936999999999999
100
AcDbArc
 50
4.529676128483457
 51
85.47417304746318
  0
ARC
  5
59CE
330
432D
100
AcDbEntity
  8
0
370
    -3
100
AcDbCircle
 10
794.8038649569987
 20
112.8380769871559
 30
0.0
 40
3.936999999999999
100
AcDbArc
 50
274.5258269525369
 51
355.4703238715165
  0
LINE
  5
59CF
330
432D
100
AcDbEntity
  8
0
370
    -3
100
AcDbLine
 10
781.6310505103737
 20
127.7694738558906
 30
0.0
 11
781.6310505103737
 21
108.4781738558935
 31
0.0
  0
LINE
  5
59D0
330
432D
100
AcDbEntity
  8
0
370
    -3
100
AcDbLine
 10
781.7885305103752
 20
127.7694738558906
 30
0.0
 11
781.7885305103752
 21
108.4781738558935
 31
0.0
  0
LINE
  5
59D1
330
432D
100
AcDbEntity
  8
0
370
    -3
100
AcDbLine
 10
782.4578205103732
 20
127.3364038558915
 30
0.0
 11
782.4578205103732
 21
108.9112438558926
 31
0.0
  0
LINE
  5
59D2
330
432D
100
AcDbEntity
  8
0
370
    -3
100
AcDbLine
 10
782.6153005103749
 20
127.3364038558915
 30
0.0
 11
782.6153005103749
 21
108.9112438558926
 31
0.0
  0
ARC
  5
59D3
330
432D
100
AcDbEntity
  8
0
370
    -3
100
AcDbCircle
 10
783.4420705103746
 20
127.3364038558915
 30
0.0
 40
0.9842499999999999
100
AcDbArc
 50
90.0
 51
180.0
  0
ARC
  5
59D4
330
432D
100
AcDbEntity
  8
0
370
    -3
100
AcDbCircle
 10
783.4420705103746
 20
127.3364038558915
 30
0.0
 40
0.8267699999999999
100
AcDbArc
 50
90.0
 51
180.0
  0
ARC
  5
59D5
330
432D
100
AcDbEntity
  8
0
370
    -3
100
AcDbCircle
 10
783.0090005103754
 20
127.7694738558906
 30
0.0
 40
1.37795
100
AcDbArc
 50
90.0
 51
180.0
  0
ARC
  5
59D6
330
432D
100
AcDbEntity
  8
0
370
    -3
100
AcDbCircle
 10
783.0090005103754
 20
127.7694738558906
 30
0.0
 40
1.22047
100
AcDbArc
 50
90.0
 51
180.0
  0
ARC
  5
59D7
330
432D
100
AcDbEntity
  8
0
370
    -3
100
AcDbCircle
 10
787.3479620637497
 20
112.8380769871559
 30
0.0
 40
3.936999999999999
100
AcDbArc
 50
184.5296761284834
 51
265.4741730474632
  0
ARC
  5
59D8
330
432D
100
AcDbEntity
  8
0
370
    -3
100
AcDbCircle
 10
806.7136775103772
 20
93.79316385589243
 30
0.0
 40
31.496
100
AcDbArc
 50
84.39312927237201
 51
95.60687072762798
  0
ARC
  5
59D9
330
432D
100
AcDbEntity
  8
0
370
    -3
100
AcDbCircle
 10
806.7136775103772
 20
140.2497638558828
 30
0.0
 40
31.496
100
AcDbArc
 50
264.3931292723721
 51
275.606870727628
  0
ARC
  5
59DA
330
432D
100
AcDbEntity
  8
0
370
    -3
100
AcDbCircle
 10
762.0287275103744
 20
117.0214638558949
 30
0.0
 40
51.181
100
AcDbArc
 50
354.4700400440474
 51
5.529959955952653
  0
ARC
  5
59DB
330
432D
100
AcDbEntity
  8
0
370
    -3
100
AcDbCircle
 10
803.9826360073034
 20
121.6121295016177
 30
0.0
 40
3.543299999999999
100
AcDbArc
 50
95.60687072762798
 51
174.4700400440473
  0
ARC
  5
59DC
330
432D
100
AcDbEntity
  8
0
370
    -3
100
AcDbCircle
 10
809.4447190134431
 20
121.6121295016177
 30
0.0
 40
3.543299999999999
100
AcDbArc
 50
5.529959955952653
 51
84.39312927237201
  0
ARC
  5
59DD
330
432D
100
AcDbEntity
  8
0
370
    -3
100
AcDbCircle
 10
809.4447190134431
 20
112.4307982101576
 30
0.0
 40
3.543299999999999
100
AcDbArc
 50
275.606870727628
 51
354.4700400440474
  0
ARC
  5
59DE
330
432D
100
AcDbEntity
  8
0
370
    -3
100
AcDbCircle
 10
803.9826360073034
 20
112.4307982101576
 30
0.0
 40
3.543299999999999
100
AcDbArc
 50
185.5299599559524
 51
264.3931292723721
  0
ARC
  5
59DF
330
432D
100
AcDbEntity
  8
0
370
    -3
100
AcDbCircle
 10
794.4697710901871
 20
123.0882490449124
 30
0.0
 40
5.137126535562173
100
AcDbArc
 50
28.85037156351881
 51
81.07480115698644
  0
ARC
  5
59E0
330
432D
100
AcDbEntity
  8
0
370
    -3
100
AcDbCircle
 10
794.4697710901871
 20
123.0882490449124
 30
0.0
 40
5.215866535562173
100
AcDbArc
 50
28.85037156351881
 51
81.14256135759028
  0
ARC
  5
59E1
330
432D
100
AcDbEntity
  8
0
370
    -3
100
AcDbCircle
 10
800.3486321509242
 20
126.3269139623274
 30
0.0
 40
1.574799999999999
100
AcDbArc
 50
208.8503715635188
 51
308.8133166018809
  0
ARC
  5
59E2
330
432D
100
AcDbEntity
  8
0
370
    -3
100
AcDbCircle
 10
800.3486321509242
 20
126.3269139623274
 30
0.0
 40
1.496059999999999
100
AcDbArc
 50
208.8503715635188
 51
308.8133166018809
  0
LINE
  5
59E3
330
432D
100
AcDbEntity
  8
0
370
    -3
100
AcDbLine
 10
803.3806025778011
 20
125.9190838558837
 30
0.0
 11
812.8514605103752
 21
125.9190838558837
 31
0.0
  0
LINE
  5
59E4
330
432D
100
AcDbEntity
  8
0
370
    -3
100
AcDbLine
 10
803.3806025778011
 20
125.9978238558955
 30
0.0
 11
812.8514605103752
 21
125.9978238558955
 31
0.0
  0
ARC
  5
59E5
330
432D
100
AcDbEntity
  8
0
370
    -3
100
AcDbCircle
 10
803.699544945897
 20
122.1612019819416
 30
0.0
 40
3.771392370555173
100
AcDbArc
 50
94.85123332743471
 51
128.8133166018807
  0
ARC
  5
59E6
330
432D
100
AcDbEntity
  8
0
370
    -3
100
AcDbCircle
 10
803.699544945897
 20
122.1612019819416
 30
0.0
 40
3.850132370555173
100
AcDbArc
 50
94.85123332743471
 51
128.8133166018807
  0
CIRCLE
  5
59E7
330
432D
100
AcDbEntity
  8
0
370
    -3
100
AcDbCircle
 10
800.2136905103741
 20
127.1198688558919
 30
0.0
 40
0.6889750000000002
  0
CIRCLE
  5
59E8
330
432D
100
AcDbEntity
  8
0
370
    -3
100
AcDbCircle
 10
806.7136775103772
 20
119.1868138558906
 30
0.0
 40
1.771649999999999
  0
CIRCLE
  5
59E9
330
432D
100
AcDbEntity
  8
0
370
    -3
100
AcDbCircle
 10
806.7136775103772
 20
119.1868138558906
 30
0.0
 40
2.283459999999999
  0
CIRCLE
  5
59EA
330
432D
100
AcDbEntity
  8
0
370
    -3
100
AcDbCircle
 10
806.7136775103772
 20
119.1868138558906
 30
0.0
 40
2.16535
  0
CIRCLE
  5
59EB
330
432D
100
AcDbEntity
  8
0
370
    -3
100
AcDbCircle
 10
791.0759135103778
 20
121.5883838558924
 30
0.0
 40
2.283459999999999
  0
CIRCLE
  5
59EC
330
432D
100
AcDbEntity
  8
0
370
    -3
100
AcDbCircle
 10
791.0759135103778
 20
121.5883838558924
 30
0.0
 40
2.16535
  0
CIRCLE
  5
59ED
330
432D
100
AcDbEntity
  8
0
370
    -3
100
AcDbCircle
 10
791.0759135103778
 20
121.5883838558924
 30
0.0
 40
1.771649999999999
  0
REGION
  5
59EE
330
432D
100
AcDbEntity
  8
0
100
AcDbModelerGeometry
 70
     1
  1
koo nn n o          
  1
ni ^ *+0;:,4 ^ *+0\^ [ nf ^ LR mnjqoqoqkmnk QK o  
  1
mjqlffffffffffffff fqfffffffffffffffj:rooh n:rono 
  1
=0;& {rn {n {rn {rn |
  1
3*2/ {rn {rn {m {o |
  1
,7:33 {rn {rn {rn {l {rn {n |
  1
9><: {rn {rn {k {m {rn {j 90-(>-; ;0*=3: 0*+ |
  1
300/ {rn {rn {i {l |
  1
/3>1:r,*-9><: {rn gokqmmfklojnolhiif nmhqnnfgiggjjgfnfm o o o n oqolflhoooooooooooom o o 90-(>-;@) V V V V |
  1
<0:;8: {rn {i {i {rn {h 90-(>-; {k {rn |
  1
:;8: {rn {g {g {i {f 90-(>-; |
  1
):-+:' {rn {h {no |
  1
:336/,:r<*-): {rn gokqmmfklojnolhiif nmhqnnfgiggjjgfnfm o o o n oqiifmfoooooooooooj o o n V V |
  1
/061+ {rn gokqgfghmojnolhkif nmhqnnfgiggjjgfnfm o |
  0
REGION
  5
59EF
330
432D
100
AcDbEntity
  8
0
100
AcDbModelerGeometry
 70
     1
  1
koo nn n o          
  1
ni ^ *+0;:,4 ^ *+0\^ [ nf ^ LR mnjqoqoqkmnk QK o  
  1
mjqlffffffffffffff fqfffffffffffffffj:rooh n:rono 
  1
=0;& {rn {n {rn {rn |
  1
3*2/ {rn {rn {m {o |
  1
,7:33 {rn {rn {rn {l {rn {n |
  1
9><: {rn {rn {k {m {rn {j 90-(>-; ;0*=3: 0*+ |
  1
300/ {rn {rn {i {l |
  1
/3>1:r,*-9><: {rn gogqmkjnhojnolhnfi nmhqnnfgiggjjgfnfm o o o n oqolflhoooooooooooom o o 90-(>-;@) V V V V |
  1
<0:;8: {rn {i {i {rn {h 90-(>-; {k {rn |
  1
:;8: {rn {g {g {i {f 90-(>-; |
  1
):-+:' {rn {h {no |
  1
:336/,:r<*-): {rn gogqmkjnhojnolhnfi nmhqnnfgiggjjgfnfm o o o n oqiifmfoooooooooooj o o n V V |
  1
/061+ {rn gogqfnkkiojnolhhmk nmhqnnfgiggjjgfnfm o |
  0
REGION
  5
59F0
330
432D
100
AcDbEntity
  8
0
100
AcDbModelerGeometry
 70
     1
  1
koo nn n o          
  1
ni ^ *+0;:,4 ^ *+0\^ [ nf ^ LR mnjqoqoqkmnk QK o  
  1
mjqlffffffffffffff fqfffffffffffffffj:rooh n:rono 
  1
=0;& {rn {n {rn {rn |
  1
3*2/ {rn {rn {m {o |
  1
,7:33 {rn {rn {rn {l {rn {n |
  1
9><: {rn {rn {k {m {rn {j 90-(>-; ;0*=3: 0*+ |
  1
300/ {rn {rn {i {l |
  1
/3>1:r,*-9><: {rn gnmqmiofnojnolhkjm nmhqnnfgiggjjgfnfm o o o n oqolflhoooooooooooom o o 90-(>-;@) V V V V |
  1
<0:;8: {rn {i {i {rn {h 90-(>-; {k {rn |
  1
:;8: {rn {g {g {i {f 90-(>-; |
  1
):-+:' {rn {h {no |
  1
:336/,:r<*-): {rn gnmqmiofnojnolhkjm nmhqnnfgiggjjgfnfm o o o n oqiifmfoooooooooooj o o n V V |
  1
/061+ {rn gnmqflomoojnolhmjm nmhqnnfgiggjjgfnfm o |
  0
ARC
  5
59F1
330
432D
100
AcDbEntity
  8
0
370
    -3
100
AcDbCircle
 10
851.3986275103723
 20
117.0214638558949
 30
0.0
 40
51.181
100
AcDbArc
 50
174.4700400440473
 51
185.5299599559524
  0
LINE
  5
59F2
330
432D
100
AcDbEntity
  8
0
370
    -3
100
AcDbLine
 10
783.0090005103754
 20
129.1474238558852
 30
0.0
 11
813.4026405103773
 21
129.1474238558852
 31
0.0
  0
LWPOLYLINE
  5
59F3
330
432D
100
AcDbEntity
  8
截面层
 62
     1
100
AcDbPolyline
 90
        8
 70
     1
 43
0.0
 10
783.0090005103754
 20
128.871833855895
 10
813.4026405103773
 20
128.871833855895
 42
-0.4142135623730951
 10
814.5050005103746
 20
127.7694738558906
 10
814.5050005103746
 20
108.4781738558935
 42
-0.4142135623730951
 10
813.4026405103773
 20
107.3758138558891
 10
783.0090005103754
 20
107.3758138558891
 42
-0.4142135623730951
 10
781.9066405103709
 20
108.4781738558935
 10
781.9066405103709
 20
127.7694738558906
 42
-0.4142135623730959
  0
INSERT
  5
5B01
330
432D
100
AcDbEntity
  8
0
100
AcDbBlockReference
  2
*U18
 10
348.1346877008173
 20
-3.248039171226537
 30
0.0
  0
INSERT
  5
5B02
330
432D
100
AcDbEntity
  8
0
100
AcDbBlockReference
  2
*U19
 10
349.4312010213623
 20
-10.96770029049571
 30
0.0
  0
LINE
  5
5B03
330
432D
100
AcDbEntity
  8
剖面线
100
AcDbLine
 10
814.4324996095546
 20
180.914819841306
 30
0.0
 11
814.4324996095546
 21
181.4266298413024
 31
0.0
  0
LINE
  5
5B04
330
432D
100
AcDbEntity
  8
剖面线
100
AcDbLine
 10
814.3884244144372
 20
181.0398435974241
 30
0.0
 11
814.4169436583416
 21
180.9130914022864
 31
0.0
  0
ARC
  5
5B05
330
432D
100
AcDbEntity
  8
剖面线
100
AcDbCircle
 10
814.424625609552
 20
180.914819841306
 30
0.0
 40
0.007874
100
AcDbArc
 50
192.6803834995573
 51
0.0
  0
ARC
  5
5B06
330
432D
100
AcDbEntity
  8
剖面线
100
AcDbCircle
 10
814.424625609552
 20
180.914819841306
 30
0.0
 40
0.03937
100
AcDbArc
 50
192.6803834995573
 51
0.0
  0
LINE
  5
5B07
330
432D
100
AcDbEntity
  8
剖面线
100
AcDbLine
 10
814.3862158534629
 20
180.9061776461933
 30
0.0
 11
814.3576966095515
 21
181.0329298413163
 31
0.0
  0
LINE
  5
5B08
330
432D
100
AcDbEntity
  8
剖面线
100
AcDbLine
 10
814.3576966095515
 20
181.0329298413163
 30
0.0
 11
814.3884244144372
 21
181.0398435974241
 31
0.0
  0
LINE
  5
5B09
330
432D
100
AcDbEntity
  8
剖面线
100
AcDbLine
 10
814.4639956095506
 20
181.4266298413024
 30
0.0
 11
814.4639956095506
 21
180.914819841306
 31
0.0
  0
ARC
  5
5B0A
330
432D
100
AcDbEntity
  8
剖面线
100
AcDbCircle
 10
814.3852556095534
 20
181.4266298413024
 30
0.0
 40
0.07874
100
AcDbArc
 50
0.0
 51
90.0
  0
ARC
  5
5B0B
330
432D
100
AcDbEntity
  8
剖面线
100
AcDbCircle
 10
814.3852556095534
 20
181.4266298413024
 30
0.0
 40
0.047244
100
AcDbArc
 50
0.0
 51
90.0
  0
LINE
  5
5B0C
330
432D
100
AcDbEntity
  8
剖面线
100
AcDbLine
 10
814.3852556095534
 20
181.4738738413037
 30
0.0
 11
814.0702956095575
 21
181.4738738413037
 31
0.0
  0
LINE
  5
5B0D
330
432D
100
AcDbEntity
  8
剖面线
100
AcDbLine
 10
814.3852556095534
 20
181.5053698413142
 30
0.0
 11
814.0702956095575
 21
181.5053698413142
 31
0.0
  0
ARC
  5
5B0E
330
432D
100
AcDbEntity
  8
剖面线
100
AcDbCircle
 10
814.0702956095575
 20
181.4266298413024
 30
0.0
 40
0.047244
100
AcDbArc
 50
90.0
 51
180.0
  0
ARC
  5
5B0F
330
432D
100
AcDbEntity
  8
剖面线
100
AcDbCircle
 10
814.0702956095575
 20
181.4266298413024
 30
0.0
 40
0.07874
100
AcDbArc
 50
90.0
 51
180.0
  0
LINE
  5
5B10
330
432D
100
AcDbEntity
  8
剖面线
100
AcDbLine
 10
814.0230516095561
 20
181.4266298413024
 30
0.0
 11
814.0230516095561
 21
180.914819841306
 31
0.0
  0
LINE
  5
5B11
330
432D
100
AcDbEntity
  8
剖面线
100
AcDbLine
 10
813.9915556095527
 20
180.914819841306
 30
0.0
 11
813.9915556095527
 21
181.4266298413024
 31
0.0
  0
ARC
  5
5B12
330
432D
100
AcDbEntity
  8
剖面线
100
AcDbCircle
 10
814.0309256095516
 20
180.914819841306
 30
0.0
 40
0.03937
100
AcDbArc
 50
180.0
 51
347.3196165004426
  0
ARC
  5
5B13
330
432D
100
AcDbEntity
  8
剖面线
100
AcDbCircle
 10
814.0309256095516
 20
180.914819841306
 30
0.0
 40
0.007874
100
AcDbArc
 50
180.0
 51
347.3196165004426
  0
LINE
  5
5B14
330
432D
100
AcDbEntity
  8
剖面线
100
AcDbLine
 10
814.0386075607619
 20
180.9130914022864
 30
0.0
 11
814.0671268046736
 21
181.0398435974241
 31
0.0
  0
LINE
  5
5B15
330
432D
100
AcDbEntity
  8
剖面线
100
AcDbLine
 10
814.0978546095521
 20
181.0329298413163
 30
0.0
 11
814.0693353656477
 21
180.9061776461933
 31
0.0
  0
LINE
  5
5B16
330
432D
100
AcDbEntity
  8
剖面线
100
AcDbLine
 10
814.0671268046736
 20
181.0398435974241
 30
0.0
 11
814.0978546095521
 21
181.0329298413163
 31
0.0
  0
HATCH
  5
5B17
330
432D
100
AcDbEntity
  8
剖面线
100
AcDbHatch
 10
0.0
 20
0.0
 30
0.0
210
0.0
220
0.0
230
1.0
  2
ANSI31
 70
     0
 71
     0
 91
        1
 92
        7
 72
     1
 73
     1
 93
       14
 10
813.9915556095527
 20
181.426629841317
 42
-0.4142090931800508
 10
814.0702944080786
 20
181.5053698412996
 42
-0.0000038146972658
 10
814.0702956095502
 20
181.5053698413142
 42
0.0
 10
814.2526623397881
 20
181.5053698413142
 42
0.0
 10
814.2526623397881
 20
181.4738738413182
 42
0.0
 10
814.0702956095502
 20
181.4738738413182
 42
0.4142135623713193
 10
814.0230516095561
 20
181.426629841317
 42
0.0
 10
814.0230516095561
 20
180.914819841306
 42
0.8950427888177971
 10
814.0386075607619
 20
180.9130914022864
 42
0.0
 10
814.0671268046736
 20
181.0398435974241
 42
0.0
 10
814.0978546095521
 20
181.0329298413163
 42
0.0
 10
814.0693353656477
 20
180.9061776461933
 42
-0.8894303225498207
 10
813.9915586849767
 20
180.9143277547739
 42
-0.003124847264985
 10
813.9915556095527
 20
180.914819841306
 42
0.0
 97
        0
 75
     0
 76
     1
 52
90.0
 41
0.19685
 77
     0
 78
     1
 53
45.00000000000844
 43
2521.878895561089
 44
3072.542031483787
 45
0.0173992462345741
 46
-0.0173992462345689
 79
     0
 47
0.0791463826083633
 98
        1
 10
814.0063817111823
 20
181.2049276722721
  0
HATCH
  5
5B18
330
432D
100
AcDbEntity
  8
剖面线
100
AcDbHatch
 10
0.0
 20
0.0
 30
0.0
210
0.0
220
0.0
230
1.0
  2
ANSI31
 70
     0
 71
     0
 91
        1
 92
        7
 72
     1
 73
     1
 93
       14
 10
814.4639956095506
 20
181.426629841317
 42
0.4142090931800508
 10
814.3852568110322
 20
181.5053698412996
 42
0.0000038146972658
 10
814.3852556095534
 20
181.5053698413142
 42
0.0
 10
814.2028888793229
 20
181.5053698413142
 42
0.0
 10
814.2028888793229
 20
181.4738738413182
 42
0.0
 10
814.3852556095534
 20
181.4738738413182
 42
-0.4142135623713193
 10
814.4324996095546
 20
181.426629841317
 42
0.0
 10
814.4324996095546
 20
180.914819841306
 42
-0.8950427888177971
 10
814.4169436583416
 20
180.9130914022864
 42
0.0
 10
814.3884244144372
 20
181.0398435974241
 42
0.0
 10
814.3576966095515
 20
181.0329298413163
 42
0.0
 10
814.3862158534629
 20
180.9061776461933
 42
0.8894303225498207
 10
814.4639925341344
 20
180.9143277547739
 42
0.003124847264985
 10
814.4639956095506
 20
180.914819841306
 42
0.0
 97
        0
 75
     0
 76
     1
 52
90.0
 41
0.19685
 77
     0
 78
     1
 53
45.00000000000844
 43
2521.878895561089
 44
3072.542031483787
 45
0.0173992462345741
 46
-0.0173992462345689
 79
     0
 47
0.0791463826083633
 98
        1
 10
814.4491695079214
 20
181.2049276722721
  0
LINE
  5
5B19
330
432D
100
AcDbEntity
  8
0
370
    -3
100
AcDbLine
 10
782.4262152335193
 20
181.5447398413128
 30
0.0
 11
781.8452971111162
 21
181.5447398413128
 31
0.0
  0
LINE
  5
5B1A
330
432D
100
AcDbEntity
  8
0
  6
AM_ISO02W050x2
 62
     4
370
    13
100
AcDbLine
 10
782.4262152335193
 20
181.5053698413142
 30
0.0
 11
781.8452971111162
 21
181.5053698413142
 31
0.0
  0
ARC
  5
5B1B
330
432D
100
AcDbEntity
  8
0
  6
AM_ISO02W050x2
 62
     4
370
    13
100
AcDbCircle
 10
782.4262152335193
 20
181.4856848413076
 30
0.0
 40
0.019685
100
AcDbArc
 50
33.69006753198991
 51
90.0
1001
GENIUS_GENODEF_13
1002
{
1000
HIER
1070
     0
1002
}
1002
{
1000
MANEDIT
1070
     0
1002
}
1002
{
1000
NOSEL
1070
     0
1002
}
1002
{
1000
BEHIND
1070
     0
1002
}
1002
{
1000
OTHER
1070
     0
1002
}
1002
{
1000
REACTOR
1002
}
1001
GENIUS_GENOBJ-N-FIL_13
1002
{
1000
OWNER
1000
GEN
1002
}
  0
LINE
  5
5B1F
330
432D
100
AcDbEntity
  8
剖面线
100
AcDbLine
 10
781.9791414111983
 20
180.914819841306
 30
0.0
 11
781.9791414111983
 21
181.4266298413024
 31
0.0
  0
LINE
  5
5B20
330
432D
100
AcDbEntity
  8
剖面线
100
AcDbLine
 10
782.0232166063155
 20
181.0398435974241
 30
0.0
 11
781.9946973624112
 21
180.9130914022864
 31
0.0
  0
ARC
  5
5B21
330
432D
100
AcDbEntity
  8
剖面线
100
AcDbCircle
 10
781.9870154112006
 20
180.914819841306
 30
0.0
 40
0.007874
100
AcDbArc
 50
180.0
 51
347.319616500444
  0
ARC
  5
5B22
330
432D
100
AcDbEntity
  8
剖面线
100
AcDbCircle
 10
781.9870154112006
 20
180.914819841306
 30
0.0
 40
0.03937
100
AcDbArc
 50
180.0
 51
347.319616500444
  0
LINE
  5
5B23
330
432D
100
AcDbEntity
  8
剖面线
100
AcDbLine
 10
782.0254251672897
 20
180.9061776461933
 30
0.0
 11
782.0539444112013
 21
181.0329298413163
 31
0.0
  0
LINE
  5
5B24
330
432D
100
AcDbEntity
  8
剖面线
100
AcDbLine
 10
782.0539444112013
 20
181.0329298413163
 30
0.0
 11
782.0232166063155
 21
181.0398435974241
 31
0.0
  0
LINE
  5
5B25
330
432D
100
AcDbEntity
  8
剖面线
100
AcDbLine
 10
781.9476454112021
 20
181.4266298413024
 30
0.0
 11
781.9476454112021
 21
180.914819841306
 31
0.0
  0
ARC
  5
5B26
330
432D
100
AcDbEntity
  8
剖面线
100
AcDbCircle
 10
782.0263854111994
 20
181.4266298413024
 30
0.0
 40
0.07874
100
AcDbArc
 50
90.0
 51
180.0
  0
ARC
  5
5B27
330
432D
100
AcDbEntity
  8
剖面线
100
AcDbCircle
 10
782.0263854111994
 20
181.4266298413024
 30
0.0
 40
0.047244
100
AcDbArc
 50
90.0
 51
180.0
  0
LINE
  5
5B28
330
432D
100
AcDbEntity
  8
剖面线
100
AcDbLine
 10
782.0263854111994
 20
181.4738738413037
 30
0.0
 11
782.3413454111953
 21
181.4738738413037
 31
0.0
  0
LINE
  5
5B29
330
432D
100
AcDbEntity
  8
剖面线
100
AcDbLine
 10
782.0263854111994
 20
181.5053698413142
 30
0.0
 11
782.3413454111953
 21
181.5053698413142
 31
0.0
  0
ARC
  5
5B2A
330
432D
100
AcDbEntity
  8
剖面线
100
AcDbCircle
 10
782.3413454111953
 20
181.4266298413024
 30
0.0
 40
0.047244
100
AcDbArc
 50
0.0000000000000072
 51
90.0
  0
ARC
  5
5B2B
330
432D
100
AcDbEntity
  8
剖面线
100
AcDbCircle
 10
782.3413454111953
 20
181.4266298413024
 30
0.0
 40
0.07874
100
AcDbArc
 50
0.0000000000000072
 51
90.0
  0
LINE
  5
5B2C
330
432D
100
AcDbEntity
  8
剖面线
100
AcDbLine
 10
782.3885894111968
 20
181.4266298413024
 30
0.0
 11
782.3885894111968
 21
180.914819841306
 31
0.0
  0
LINE
  5
5B2D
330
432D
100
AcDbEntity
  8
剖面线
100
AcDbLine
 10
782.4200854111999
 20
180.914819841306
 30
0.0
 11
782.4200854111999
 21
181.4266298413024
 31
0.0
  0
ARC
  5
5B2E
330
432D
100
AcDbEntity
  8
剖面线
100
AcDbCircle
 10
782.3807154112013
 20
180.914819841306
 30
0.0
 40
0.03937
100
AcDbArc
 50
192.6803834995559
 51
0.0000000000000072
  0
ARC
  5
5B2F
330
432D
100
AcDbEntity
  8
剖面线
100
AcDbCircle
 10
782.3807154112013
 20
180.914819841306
 30
0.0
 40
0.007874
100
AcDbArc
 50
192.6803834995559
 51
0.0000000000000072
  0
LINE
  5
5B30
330
432D
100
AcDbEntity
  8
剖面线
100
AcDbLine
 10
782.3730334599907
 20
180.9130914022864
 30
0.0
 11
782.3445142160792
 21
181.0398435974241
 31
0.0
  0
LINE
  5
5B31
330
432D
100
AcDbEntity
  8
剖面线
100
AcDbLine
 10
782.3137864112006
 20
181.0329298413163
 30
0.0
 11
782.342305655105
 21
180.9061776461933
 31
0.0
  0
LINE
  5
5B32
330
432D
100
AcDbEntity
  8
剖面线
100
AcDbLine
 10
782.3445142160792
 20
181.0398435974241
 30
0.0
 11
782.3137864112006
 21
181.0329298413163
 31
0.0
  0
HATCH
  5
5B33
330
432D
100
AcDbEntity
  8
剖面线
100
AcDbHatch
 10
0.0
 20
0.0
 30
0.0
210
0.0
220
0.0
230
1.0
  2
ANSI31
 70
     0
 71
     0
 91
        1
 92
        7
 72
     1
 73
     1
 93
       14
 10
782.4200854111999
 20
181.426629841317
 42
0.4142090931800508
 10
782.3413466126742
 20
181.5053698412996
 42
0.0000038146972658
 10
782.3413454112027
 20
181.5053698413142
 42
0.0
 10
782.1589786809648
 20
181.5053698413142
 42
0.0
 10
782.1589786809648
 20
181.4738738413182
 42
0.0
 10
782.3413454112027
 20
181.4738738413182
 42
-0.4142135623713193
 10
782.3885894111968
 20
181.426629841317
 42
0.0
 10
782.3885894111968
 20
180.914819841306
 42
-0.8950427888177971
 10
782.3730334599907
 20
180.9130914022864
 42
0.0
 10
782.3445142160792
 20
181.0398435974241
 42
0.0
 10
782.3137864112006
 20
181.0329298413163
 42
0.0
 10
782.342305655105
 20
180.9061776461933
 42
0.8894303225498207
 10
782.4200823357762
 20
180.9143277547739
 42
0.003124847264985
 10
782.4200854111999
 20
180.914819841306
 42
0.0
 97
        0
 75
     0
 76
     1
 52
90.0
 41
0.19685
 77
     0
 78
     1
 53
134.9999999999915
 43
-925.4672545403362
 44
3072.542031483787
 45
-0.0173992462345741
 46
-0.0173992462345689
 79
     0
 47
0.0791463826083633
 98
        1
 10
782.4052593095706
 20
181.2049276722721
  0
HATCH
  5
5B34
330
432D
100
AcDbEntity
  8
剖面线
100
AcDbHatch
 10
0.0
 20
0.0
 30
0.0
210
0.0
220
0.0
230
1.0
  2
ANSI31
 70
     0
 71
     0
 91
        1
 92
        7
 72
     1
 73
     1
 93
       14
 10
781.9476454112021
 20
181.426629841317
 42
-0.4142090931800508
 10
782.0263842097205
 20
181.5053698412996
 42
-0.0000038146972658
 10
782.0263854111994
 20
181.5053698413142
 42
0.0
 10
782.2087521414299
 20
181.5053698413142
 42
0.0
 10
782.2087521414299
 20
181.4738738413182
 42
0.0
 10
782.0263854111994
 20
181.4738738413182
 42
0.4142135623713193
 10
781.9791414111983
 20
181.426629841317
 42
0.0
 10
781.9791414111983
 20
180.914819841306
 42
0.8950427888177971
 10
781.9946973624112
 20
180.9130914022864
 42
0.0
 10
782.0232166063155
 20
181.0398435974241
 42
0.0
 10
782.0539444112013
 20
181.0329298413163
 42
0.0
 10
782.0254251672897
 20
180.9061776461933
 42
-0.8894303225498207
 10
781.9476484866185
 20
180.9143277547739
 42
-0.003124847264985
 10
781.9476454112021
 20
180.914819841306
 42
0.0
 97
        0
 75
     0
 76
     1
 52
90.0
 41
0.19685
 77
     0
 78
     1
 53
134.9999999999915
 43
-925.4672545403362
 44
3072.542031483787
 45
-0.0173992462345741
 46
-0.0173992462345689
 79
     0
 47
0.0791463826083633
 98
        1
 10
781.9624715128314
 20
181.2049276722721
  0
INSERT
  5
5BB8
330
432D
100
AcDbEntity
  8
0
100
AcDbBlockReference
  2
A$C2558637D
 10
788.4993141549706
 20
102.6744709758433
 30
0.0
  0
LWPOLYLINE
  5
5BB9
330
432D
100
AcDbEntity
  8
截面层
 62
     1
100
AcDbPolyline
 90
        8
 70
     1
 43
0.0
 10
783.0090005103754
 20
94.02640786462368
 10
813.4026405103773
 20
94.02640786462368
 42
-0.4142135623730951
 10
814.5050005103746
 20
92.92404786461927
 10
814.5050005103746
 20
73.63274786462216
 42
-0.4142135623730951
 10
813.4026405103773
 20
72.53038786461775
 10
783.0090005103754
 20
72.53038786461775
 42
-0.4142135623730951
 10
781.9066405103709
 20
73.63274786462216
 10
781.9066405103709
 20
92.92404786461927
 42
-0.4142135623730959
  0
INSERT
  5
5BBA
330
432D
100
AcDbEntity
  8
0
100
AcDbBlockReference
  2
A$C2558637D
 10
788.4993141549706
 20
67.82904498457203
 30
0.0
  0
ENDSEC
  0
SECTION
  2
OBJECTS
  0
DICTIONARY
  5
42C3
330
0
100
AcDbDictionary
281
     1
  3
ACAD_2007HEADERVARS_RT
350
5CA7
  3
ACAD_COLOR
350
4324
  3
ACAD_GROUP
350
42C4
  3
ACAD_LAYOUT
350
4323
  3
ACAD_MATERIAL
350
42C7
  3
ACAD_MLEADERSTYLE
350
4327
  3
ACAD_MLINESTYLE
350
4320
  3
ACAD_PLOTSETTINGS
350
4322
  3
ACAD_PLOTSTYLENAME
350
42C5
  3
ACAD_SCALELIST
350
42F4
  3
ACAD_TABLESTYLE
350
4325
  3
ACAD_VISUALSTYLE
350
42E0
  3
ACDB_RECOMPOSE_DATA
350
5CA5
  3
AcDbVariableDictionary
350
49F2
  3
AcmDictionary
350
44C0
  3
AEC_PROPERTY_SET_DEFS
350
46F4
  3
AMG
350
4470
  3
AMGSNAPSETTINGS
350
44E9
  3
DWGPROPS
350
5CA6
  3
lxx_dict
350
44E4
  0
DICTIONARY
  5
46A5
330
42B9
100
AcDbDictionary
280
     1
281
     1
  3
ACAD_LAYERSTATES
360
46A6
  0
DICTIONARY
  5
44F0
330
4316
100
AcDbDictionary
280
     1
281
     1
  3
ADSK_XREC_LAYER_RECONCILED
360
44F1
  0
DICTIONARY
  5
44F2
330
4341
100
AcDbDictionary
280
     1
281
     1
  3
ADSK_XREC_LAYER_RECONCILED
360
44F3
  0
DICTIONARY
  5
44F4
330
4342
100
AcDbDictionary
280
     1
281
     1
  3
ADSK_XREC_LAYER_RECONCILED
360
44F5
  0
DICTIONARY
  5
44F6
330
4344
100
AcDbDictionary
280
     1
281
     1
  3
ADSK_XREC_LAYER_RECONCILED
360
44F7
  0
DICTIONARY
  5
44F8
330
4345
100
AcDbDictionary
280
     1
281
     1
  3
ADSK_XREC_LAYER_RECONCILED
360
44F9
  0
DICTIONARY
  5
44FA
330
4347
100
AcDbDictionary
280
     1
281
     1
  3
ADSK_XREC_LAYER_RECONCILED
360
44FB
  0
DICTIONARY
  5
536A
330
5369
100
AcDbDictionary
280
     1
281
     1
  0
DICTIONARY
  5
506A
330
432D
100
AcDbDictionary
280
     1
281
     1
  3
ACAD_SORTENTS
360
506B
  0
DICTIONARY
  5
5522
330
551F
100
AcDbDictionary
280
     1
281
     1
  3
ACAD_SORTENTS
360
5523
  0
DICTIONARY
  5
59A5
330
59A4
100
AcDbDictionary
280
     1
281
     1
  3
ACAD_DIMASSOC
360
59A6
  0
DICTIONARY
  5
59A8
330
59A7
100
AcDbDictionary
280
     1
281
     1
  3
ACAD_DIMASSOC
360
59A9
  0
DICTIONARY
  5
59AB
330
59AA
100
AcDbDictionary
280
     1
281
     1
  3
ACAD_DIMASSOC
360
59AC
  0
DICTIONARY
  5
5CA7
102
{ACAD_REACTORS
330
42C3
102
}
330
42C3
100
AcDbDictionary
281
     1
  3
DIMARCSYM
350
5CA9
  3
DIMFXL
350
5CA8
  3
DIMJOGANG
350
5CAA
  3
DIMLTEX1
350
5CAC
  3
DIMLTEX2
350
5CAD
  3
DIMLTYPE
350
5CAB
  0
DICTIONARY
  5
4324
102
{ACAD_REACTORS
330
42C3
102
}
330
42C3
100
AcDbDictionary
281
     1
  0
DICTIONARY
  5
42C4
102
{ACAD_REACTORS
330
42C3
102
}
330
42C3
100
AcDbDictionary
281
     1
  0
DICTIONARY
  5
4323
102
{ACAD_REACTORS
330
42C3
102
}
330
42C3
100
AcDbDictionary
281
     1
  3
Model
350
4330
  3
布局1
350
432C
  0
DICTIONARY
  5
42C7
102
{ACAD_REACTORS
330
42C3
102
}
330
42C3
100
AcDbDictionary
281
     1
  3
ByBlock
350
42D0
  3
ByLayer
350
42C8
  3
Global
350
42D8
  0
DICTIONARY
  5
4327
102
{ACAD_REACTORS
330
42C3
102
}
330
42C3
100
AcDbDictionary
281
     1
  3
Standard
350
4328
  0
DICTIONARY
  5
4320
102
{ACAD_REACTORS
330
42C3
102
}
330
42C3
100
AcDbDictionary
281
     1
  3
Standard
350
4321
  0
DICTIONARY
  5
4322
102
{ACAD_REACTORS
330
42C3
102
}
330
42C3
100
AcDbDictionary
281
     1
  0
ACDBDICTIONARYWDFLT
  5
42C5
102
{ACAD_REACTORS
330
42C3
102
}
330
42C3
100
AcDbDictionary
281
     1
  3
Normal
350
42C6
100
AcDbDictionaryWithDefault
340
42C6
  0
DICTIONARY
  5
42F4
102
{ACAD_REACTORS
330
42C3
102
}
330
42C3
100
AcDbDictionary
281
     1
  3
A0
350
42F5
  3
A1
350
42F6
  3
A2
350
42F7
  3
A3
350
42F8
  3
A4
350
42F9
  3
A5
350
42FA
  3
A6
350
42FB
  3
A7
350
42FC
  3
A8
350
42FD
  3
A9
350
42FE
  3
B0
350
42FF
  3
B1
350
4300
  3
B2
350
4301
  3
B3
350
4302
  3
B4
350
4303
  3
B5
350
4304
  3
B6
350
4305
  3
B7
350
4306
  3
B8
350
4307
  3
B9
350
4308
  3
C0
350
4309
  3
C1
350
430A
  3
C2
350
430B
  3
C3
350
430C
  3
C4
350
430D
  3
C5
350
430E
  3
C6
350
430F
  3
C7
350
4310
  3
C8
350
4311
  3
C9
350
4312
  3
D0
350
4313
  3
D1
350
4314
  3
D2
350
4315
  0
DICTIONARY
  5
4325
102
{ACAD_REACTORS
330
42C3
102
}
330
42C3
100
AcDbDictionary
281
     1
  3
Standard
350
4326
  0
DICTIONARY
  5
42E0
102
{ACAD_REACTORS
330
42C3
102
}
330
42C3
100
AcDbDictionary
281
     1
  3
2dWireframe
350
42E6
  3
3D Hidden
350
42E8
  3
3dWireframe
350
42E7
  3
Basic
350
42E5
  3
Brighten
350
42EC
  3
ColorChange
350
42F0
  3
Conceptual
350
42E9
  3
Dim
350
42EB
  3
EdgeColorOff
350
42F3
  3
Facepattern
350
42EF
  3
Flat
350
42E1
  3
FlatWithEdges
350
42E2
  3
Gouraud
350
42E3
  3
GouraudWithEdges
350
42E4
  3
JitterOff
350
42F1
  3
Linepattern
350
42EE
  3
OverhangOff
350
42F2
  3
Realistic
350
42EA
  3
Thicken
350
42ED
  0
XRECORD
  5
5CA5
102
{ACAD_REACTORS
330
42C3
102
}
330
42C3
100
AcDbXrecord
280
     1
 90
        1
330
4326
  0
DICTIONARY
  5
49F2
102
{ACAD_REACTORS
330
42C3
102
}
330
42C3
100
AcDbDictionary
281
     1
  3
CANNOSCALE
350
49F5
  3
CMLEADERSTYLE
350
49F4
  3
CTABLESTYLE
350
49F3
  3
DIMASSOC
350
49F8
  3
INDEXCTL
350
49F7
  3
SORTENTS
350
49F6
  3
XCLIPFRAME
350
5CA2
  0
DICTIONARY
  5
44C0
102
{ACAD_REACTORS
330
42C3
102
}
330
42C3
100
AcDbDictionary
281
     1
  3
AcmStdDictionary
350
44CA
  0
DICTIONARY
  5
46F4
102
{ACAD_REACTORS
330
42C3
102
}
330
42C3
100
AcDbDictionary
281
     1
  0
DICTIONARY
  5
4470
102
{ACAD_REACTORS
330
42C3
102
}
330
42C3
100
AcDbDictionary
281
     1
  0
DICTIONARY
  5
44E9
102
{ACAD_REACTORS
330
42C3
102
}
330
42C3
100
AcDbDictionary
281
     1
  0
XRECORD
  5
5CA6
102
{ACAD_REACTORS
330
42C3
102
}
330
42C3
100
AcDbXrecord
280
     1
  1
DWGPROPS COOKIE
  2

  3

  4

  6

  7

  8
Administrator
  9

300
=
301
=
302
=
303
=
304
=
305
=
306
=
307
=
308
=
309
=
 40
0.2093225347222222
 41
2455434.724808658
 42
2457820.398413588
  1

 90
        0
  0
DICTIONARY
  5
44E4
102
{ACAD_REACTORS
330
42C3
102
}
330
42C3
100
AcDbDictionary
281
     1
  3
lxx_dimth
350
44E5
  0
DICTIONARY
  5
46A6
102
{ACAD_REACTORS
330
46A5
102
}
330
46A5
100
AcDbDictionary
281
     1
  0
XRECORD
  5
44F1
102
{ACAD_REACTORS
330
44F0
102
}
330
44F0
100
AcDbXrecord
280
     1
290
     1
  0
XRECORD
  5
44F3
102
{ACAD_REACTORS
330
44F2
102
}
330
44F2
100
AcDbXrecord
280
     1
290
     1
  0
XRECORD
  5
44F5
102
{ACAD_REACTORS
330
44F4
102
}
330
44F4
100
AcDbXrecord
280
     1
290
     1
  0
XRECORD
  5
44F7
102
{ACAD_REACTORS
330
44F6
102
}
330
44F6
100
AcDbXrecord
280
     1
290
     1
  0
XRECORD
  5
44F9
102
{ACAD_REACTORS
330
44F8
102
}
330
44F8
100
AcDbXrecord
280
     1
290
     1
  0
XRECORD
  5
44FB
102
{ACAD_REACTORS
330
44FA
102
}
330
44FA
100
AcDbXrecord
280
     1
290
     1
  0
SORTENTSTABLE
  5
506B
102
{ACAD_REACTORS
330
506A
102
}
330
506A
100
AcDbSortentsTable
330
432D
  0
SORTENTSTABLE
  5
5523
102
{ACAD_REACTORS
330
5522
102
}
330
5522
100
AcDbSortentsTable
330
551F
  0
DIMASSOC
  5
59A6
102
{ACAD_REACTORS
330
59A5
102
}
330
59A5
100
AcDbDimAssoc
330
59A4
 90
        3
 70
     0
 71
     0
  1
AcDbOsnapPointRef
 72
     1
331
5906
 73
     2
 91
        0
 40
1.0
 10
0.0
 20
0.0
 30
2.000000000000000E+50
 75
     0
  1
AcDbOsnapPointRef
 72
     1
331
58F8
 73
     2
 91
        0
 40
1.0
 10
0.0
 20
0.0
 30
2.000000000000000E+50
 75
     0
  0
DIMASSOC
  5
59A9
102
{ACAD_REACTORS
330
59A8
102
}
330
59A8
100
AcDbDimAssoc
330
59A7
 90
        1
 70
     0
 71
     0
  1
AcDbOsnapPointRef
 72
     1
331
597C
 73
     2
 91
        0
 40
1.570796326794896
 10
0.0
 20
0.0
 30
2.000000000000000E+50
 75
     0
  0
DIMASSOC
  5
59AC
102
{ACAD_REACTORS
330
59AB
102
}
330
59AB
100
AcDbDimAssoc
330
59AA
 90
        1
 70
     0
 71
     0
  1
AcDbOsnapPointRef
 72
    13
331
596D
 73
     2
 91
        0
 40
1.570796326794896
 10
0.0
 20
0.0
 30
2.000000000000000E+50
 75
     0
  0
XRECORD
  5
5CA9
102
{ACAD_REACTORS
330
5CA7
102
}
330
5CA7
100
AcDbXrecord
280
     1
 70
     1
  0
XRECORD
  5
5CA8
102
{ACAD_REACTORS
330
5CA7
102
}
330
5CA7
100
AcDbXrecord
280
     1
 40
3.0
  0
XRECORD
  5
5CAA
102
{ACAD_REACTORS
330
5CA7
102
}
330
5CA7
100
AcDbXrecord
280
     1
 40
1.570796326794896
  0
XRECORD
  5
5CAC
102
{ACAD_REACTORS
330
5CA7
102
}
330
5CA7
100
AcDbXrecord
280
     1
340
431E
  0
XRECORD
  5
5CAD
102
{ACAD_REACTORS
330
5CA7
102
}
330
5CA7
100
AcDbXrecord
280
     1
340
431E
  0
XRECORD
  5
5CAB
102
{ACAD_REACTORS
330
5CA7
102
}
330
5CA7
100
AcDbXrecord
280
     1
340
431E
  0
LAYOUT
  5
4330
102
{ACAD_XDICTIONARY
360
5CD7
102
}
102
{ACAD_REACTORS
330
4323
102
}
330
4323
100
AcDbPlotSettings
  1

  2
Microsoft Office Document Image Writer
  4

  6

 40
0.0
 41
0.0
 42
0.0
 43
0.0
 44
0.0
 45
0.0
 46
0.0
 47
0.0
 48
0.0
 49
0.0
140
0.0
141
0.0
142
1.0
143
1.0
 70
  1712
 72
     0
 73
     0
 74
     0
  7
yanxiu.ctb
 75
     0
147
1.0
148
0.0
149
0.0
100
AcDbLayout
  1
Model
 70
     1
 71
     0
 10
0.0
 20
0.0
 11
12.0
 21
9.0
 12
0.0
 22
0.0
 32
0.0
 14
0.0
 24
0.0
 34
0.0
 15
0.0
 25
0.0
 35
0.0
146
0.0
 13
0.0
 23
0.0
 33
0.0
 16
1.0
 26
0.0
 36
0.0
 17
0.0
 27
1.0
 37
0.0
 76
     0
330
432D
331
4331
  0
LAYOUT
  5
432C
102
{ACAD_XDICTIONARY
360
5CD5
102
}
102
{ACAD_REACTORS
330
4323
102
}
330
4323
100
AcDbPlotSettings
  1

  2
Microsoft Office Document Image Writer
  4

  6

 40
0.0
 41
0.0
 42
0.0
 43
0.0
 44
0.0
 45
0.0
 46
0.0
 47
0.0
 48
0.0
 49
0.0
140
0.0
141
0.0
142
1.0
143
1.0
 70
   688
 72
     0
 73
     0
 74
     5
  7
yanxiu.ctb
 75
    16
147
1.0
148
0.0
149
0.0
100
AcDbLayout
  1
布局1
 70
     1
 71
     1
 10
0.0
 20
0.0
 11
12.0
 21
9.0
 12
0.0
 22
0.0
 32
0.0
 14
1.000000000000000E+20
 24
1.000000000000000E+20
 34
1.000000000000000E+20
 15
-1.000000000000000E+20
 25
-1.000000000000000E+20
 35
-1.000000000000000E+20
146
0.0
 13
0.0
 23
0.0
 33
0.0
 16
1.0
 26
0.0
 36
0.0
 17
0.0
 27
1.0
 37
0.0
 76
     0
330
4329
  0
MATERIAL
  5
42D0
102
{ACAD_XDICTIONARY
360
42D1
102
}
102
{ACAD_REACTORS
330
42C7
102
}
330
42C7
100
AcDbMaterial
  1
ByBlock
 72
     0
 43
0.0208333333333333
 43
0.0
 43
0.0
 43
0.0
 43
0.0
 43
0.0208333333333333
 43
0.0
 43
0.0
 43
0.0
 43
0.0
 43
1.0
 43
0.0
 43
0.0
 43
0.0
 43
0.0
 43
1.0
 77
     0
 47
0.0208333333333333
 47
0.0
 47
0.0
 47
0.0
 47
0.0
 47
0.0208333333333333
 47
0.0
 47
0.0
 47
0.0
 47
0.0
 47
1.0
 47
0.0
 47
0.0
 47
0.0
 47
0.0
 47
1.0
171
     0
 49
0.0208333333333333
 49
0.0
 49
0.0
 49
0.0
 49
0.0
 49
0.0208333333333333
 49
0.0
 49
0.0
 49
0.0
 49
0.0
 49
1.0
 49
0.0
 49
0.0
 49
0.0
 49
0.0
 49
1.0
175
     0
142
0.0208333333333333
142
0.0
142
0.0
142
0.0
142
0.0
142
0.0208333333333333
142
0.0
142
0.0
142
0.0
142
0.0
142
1.0
142
0.0
142
0.0
142
0.0
142
0.0
142
1.0
179
     0
144
0.0208333333333333
144
0.0
144
0.0
144
0.0
144
0.0
144
0.0208333333333333
144
0.0
144
0.0
144
0.0
144
0.0
144
1.0
144
0.0
144
0.0
144
0.0
144
0.0
144
1.0
147
0.0208333333333333
147
0.0
147
0.0
147
0.0
147
0.0
147
0.0208333333333333
147
0.0
147
0.0
147
0.0
147
0.0
147
1.0
147
0.0
147
0.0
147
0.0
147
0.0
147
1.0
  0
MATERIAL
  5
42C8
102
{ACAD_XDICTIONARY
360
42C9
102
}
102
{ACAD_REACTORS
330
42C7
102
}
330
42C7
100
AcDbMaterial
  1
ByLayer
 72
     0
 43
0.0208333333333333
 43
0.0
 43
0.0
 43
0.0
 43
0.0
 43
0.0208333333333333
 43
0.0
 43
0.0
 43
0.0
 43
0.0
 43
1.0
 43
0.0
 43
0.0
 43
0.0
 43
0.0
 43
1.0
 77
     0
 47
0.0208333333333333
 47
0.0
 47
0.0
 47
0.0
 47
0.0
 47
0.0208333333333333
 47
0.0
 47
0.0
 47
0.0
 47
0.0
 47
1.0
 47
0.0
 47
0.0
 47
0.0
 47
0.0
 47
1.0
171
     0
 49
0.0208333333333333
 49
0.0
 49
0.0
 49
0.0
 49
0.0
 49
0.0208333333333333
 49
0.0
 49
0.0
 49
0.0
 49
0.0
 49
1.0
 49
0.0
 49
0.0
 49
0.0
 49
0.0
 49
1.0
175
     0
142
0.0208333333333333
142
0.0
142
0.0
142
0.0
142
0.0
142
0.0208333333333333
142
0.0
142
0.0
142
0.0
142
0.0
142
1.0
142
0.0
142
0.0
142
0.0
142
0.0
142
1.0
179
     0
144
0.0208333333333333
144
0.0
144
0.0
144
0.0
144
0.0
144
0.0208333333333333
144
0.0
144
0.0
144
0.0
144
0.0
144
1.0
144
0.0
144
0.0
144
0.0
144
0.0
144
1.0
147
0.0208333333333333
147
0.0
147
0.0
147
0.0
147
0.0
147
0.0208333333333333
147
0.0
147
0.0
147
0.0
147
0.0
147
1.0
147
0.0
147
0.0
147
0.0
147
0.0
147
1.0
  0
MATERIAL
  5
42D8
102
{ACAD_XDICTIONARY
360
42D9
102
}
102
{ACAD_REACTORS
330
42C7
102
}
330
42C7
100
AcDbMaterial
  1
Global
 72
     0
 43
0.0208333333333333
 43
0.0
 43
0.0
 43
0.0
 43
0.0
 43
0.0208333333333333
 43
0.0
 43
0.0
 43
0.0
 43
0.0
 43
1.0
 43
0.0
 43
0.0
 43
0.0
 43
0.0
 43
1.0
 77
     0
 47
0.0208333333333333
 47
0.0
 47
0.0
 47
0.0
 47
0.0
 47
0.0208333333333333
 47
0.0
 47
0.0
 47
0.0
 47
0.0
 47
1.0
 47
0.0
 47
0.0
 47
0.0
 47
0.0
 47
1.0
171
     0
 49
0.0208333333333333
 49
0.0
 49
0.0
 49
0.0
 49
0.0
 49
0.0208333333333333
 49
0.0
 49
0.0
 49
0.0
 49
0.0
 49
1.0
 49
0.0
 49
0.0
 49
0.0
 49
0.0
 49
1.0
175
     0
142
0.0208333333333333
142
0.0
142
0.0
142
0.0
142
0.0
142
0.0208333333333333
142
0.0
142
0.0
142
0.0
142
0.0
142
1.0
142
0.0
142
0.0
142
0.0
142
0.0
142
1.0
179
     0
144
0.0208333333333333
144
0.0
144
0.0
144
0.0
144
0.0
144
0.0208333333333333
144
0.0
144
0.0
144
0.0
144
0.0
144
1.0
144
0.0
144
0.0
144
0.0
144
0.0
144
1.0
147
0.0208333333333333
147
0.0
147
0.0
147
0.0
147
0.0
147
0.0208333333333333
147
0.0
147
0.0
147
0.0
147
0.0
147
1.0
147
0.0
147
0.0
147
0.0
147
0.0
147
1.0
  0
MLEADERSTYLE
  5
4328
102
{ACAD_REACTORS
330
4327
102
}
330
4327
100
AcDbMLeaderStyle
170
     2
171
     1
172
     0
 90
        2
 40
0.0
 41
0.0
173
     1
 91
-1056964608
340
431C
 92
       -2
290
     1
 42
0.09
291
     1
 43
0.36
  3
Standard
 44
0.18
300

342
4317
174
     1
178
     6
175
     1
176
     0
 93
-1056964608
 45
0.18
292
     0
297
     0
 46
0.18
 94
-1056964608
 47
1.0
 49
1.0
140
1.0
293
     1
141
0.0
294
     1
177
     0
142
1.0
295
     0
296
     0
143
0.125
1001
ACAD_MLEADERVER
1070
     2
  0
MLINESTYLE
  5
4321
102
{ACAD_REACTORS
330
4320
102
}
330
4320
100
AcDbMlineStyle
  2
STANDARD
 70
     0
  3

 62
   256
 51
90.0
 52
90.0
 71
     2
 49
0.5
 62
   256
  6
BYLAYER
 49
-0.5
 62
   256
  6
BYLAYER
  0
ACDBPLACEHOLDER
  5
42C6
102
{ACAD_REACTORS
330
42C5
102
}
330
42C5
  0
SCALE
  5
42F5
102
{ACAD_REACTORS
330
42F4
102
}
330
42F4
100
AcDbScale
 70
     0
300
1:1
140
1.0
141
1.0
290
     1
  0
SCALE
  5
42F6
102
{ACAD_REACTORS
330
42F4
102
}
330
42F4
100
AcDbScale
 70
     0
300
1:2
140
1.0
141
2.0
290
     0
  0
SCALE
  5
42F7
102
{ACAD_REACTORS
330
42F4
102
}
330
42F4
100
AcDbScale
 70
     0
300
1:4
140
1.0
141
4.0
290
     0
  0
SCALE
  5
42F8
102
{ACAD_REACTORS
330
42F4
102
}
330
42F4
100
AcDbScale
 70
     0
300
1:5
140
1.0
141
5.0
290
     0
  0
SCALE
  5
42F9
102
{ACAD_REACTORS
330
42F4
102
}
330
42F4
100
AcDbScale
 70
     0
300
1:8
140
1.0
141
8.0
290
     0
  0
SCALE
  5
42FA
102
{ACAD_REACTORS
330
42F4
102
}
330
42F4
100
AcDbScale
 70
     0
300
1:10
140
1.0
141
10.0
290
     0
  0
SCALE
  5
42FB
102
{ACAD_REACTORS
330
42F4
102
}
330
42F4
100
AcDbScale
 70
     0
300
1:16
140
1.0
141
16.0
290
     0
  0
SCALE
  5
42FC
102
{ACAD_REACTORS
330
42F4
102
}
330
42F4
100
AcDbScale
 70
     0
300
1:20
140
1.0
141
20.0
290
     0
  0
SCALE
  5
42FD
102
{ACAD_REACTORS
330
42F4
102
}
330
42F4
100
AcDbScale
 70
     0
300
1:30
140
1.0
141
30.0
290
     0
  0
SCALE
  5
42FE
102
{ACAD_REACTORS
330
42F4
102
}
330
42F4
100
AcDbScale
 70
     0
300
1:40
140
1.0
141
40.0
290
     0
  0
SCALE
  5
42FF
102
{ACAD_REACTORS
330
42F4
102
}
330
42F4
100
AcDbScale
 70
     0
300
1:50
140
1.0
141
50.0
290
     0
  0
SCALE
  5
4300
102
{ACAD_REACTORS
330
42F4
102
}
330
42F4
100
AcDbScale
 70
     0
300
1:100
140
1.0
141
100.0
290
     0
  0
SCALE
  5
4301
102
{ACAD_REACTORS
330
42F4
102
}
330
42F4
100
AcDbScale
 70
     0
300
2:1
140
2.0
141
1.0
290
     0
  0
SCALE
  5
4302
102
{ACAD_REACTORS
330
42F4
102
}
330
42F4
100
AcDbScale
 70
     0
300
4:1
140
4.0
141
1.0
290
     0
  0
SCALE
  5
4303
102
{ACAD_REACTORS
330
42F4
102
}
330
42F4
100
AcDbScale
 70
     0
300
8:1
140
8.0
141
1.0
290
     0
  0
SCALE
  5
4304
102
{ACAD_REACTORS
330
42F4
102
}
330
42F4
100
AcDbScale
 70
     0
300
10:1
140
10.0
141
1.0
290
     0
  0
SCALE
  5
4305
102
{ACAD_REACTORS
330
42F4
102
}
330
42F4
100
AcDbScale
 70
     0
300
100:1
140
100.0
141
1.0
290
     0
  0
SCALE
  5
4306
102
{ACAD_REACTORS
330
42F4
102
}
330
42F4
100
AcDbScale
 70
     0
300
1/128" = 1'-0"
140
0.0078125
141
12.0
290
     0
  0
SCALE
  5
4307
102
{ACAD_REACTORS
330
42F4
102
}
330
42F4
100
AcDbScale
 70
     0
300
1/64" = 1'-0"
140
0.015625
141
12.0
290
     0
  0
SCALE
  5
4308
102
{ACAD_REACTORS
330
42F4
102
}
330
42F4
100
AcDbScale
 70
     0
300
1/32" = 1'-0"
140
0.03125
141
12.0
290
     0
  0
SCALE
  5
4309
102
{ACAD_REACTORS
330
42F4
102
}
330
42F4
100
AcDbScale
 70
     0
300
1/16" = 1'-0"
140
0.0625
141
12.0
290
     0
  0
SCALE
  5
430A
102
{ACAD_REACTORS
330
42F4
102
}
330
42F4
100
AcDbScale
 70
     0
300
3/32" = 1'-0"
140
0.09375
141
12.0
290
     0
  0
SCALE
  5
430B
102
{ACAD_REACTORS
330
42F4
102
}
330
42F4
100
AcDbScale
 70
     0
300
1/8" = 1'-0"
140
0.125
141
12.0
290
     0
  0
SCALE
  5
430C
102
{ACAD_REACTORS
330
42F4
102
}
330
42F4
100
AcDbScale
 70
     0
300
3/16" = 1'-0"
140
0.1875
141
12.0
290
     0
  0
SCALE
  5
430D
102
{ACAD_REACTORS
330
42F4
102
}
330
42F4
100
AcDbScale
 70
     0
300
1/4" = 1'-0"
140
0.25
141
12.0
290
     0
  0
SCALE
  5
430E
102
{ACAD_REACTORS
330
42F4
102
}
330
42F4
100
AcDbScale
 70
     0
300
3/8" = 1'-0"
140
0.375
141
12.0
290
     0
  0
SCALE
  5
430F
102
{ACAD_REACTORS
330
42F4
102
}
330
42F4
100
AcDbScale
 70
     0
300
1/2" = 1'-0"
140
0.5
141
12.0
290
     0
  0
SCALE
  5
4310
102
{ACAD_REACTORS
330
42F4
102
}
330
42F4
100
AcDbScale
 70
     0
300
3/4" = 1'-0"
140
0.75
141
12.0
290
     0
  0
SCALE
  5
4311
102
{ACAD_REACTORS
330
42F4
102
}
330
42F4
100
AcDbScale
 70
     0
300
1" = 1'-0"
140
1.0
141
12.0
290
     0
  0
SCALE
  5
4312
102
{ACAD_REACTORS
330
42F4
102
}
330
42F4
100
AcDbScale
 70
     0
300
1-1/2" = 1'-0"
140
1.5
141
12.0
290
     0
  0
SCALE
  5
4313
102
{ACAD_REACTORS
330
42F4
102
}
330
42F4
100
AcDbScale
 70
     0
300
3" = 1'-0"
140
3.0
141
12.0
290
     0
  0
SCALE
  5
4314
102
{ACAD_REACTORS
330
42F4
102
}
330
42F4
100
AcDbScale
 70
     0
300
6" = 1'-0"
140
6.0
141
12.0
290
     0
  0
SCALE
  5
4315
102
{ACAD_REACTORS
330
42F4
102
}
330
42F4
100
AcDbScale
 70
     0
300
1'-0" = 1'-0"
140
12.0
141
12.0
290
     0
  0
TABLESTYLE
  5
4326
102
{ACAD_XDICTIONARY
360
49FA
102
}
102
{ACAD_REACTORS
330
4325
102
}
330
4325
100
AcDbTableStyle
  3
Standard
 70
     0
 71
     0
 40
0.06
 41
0.06
280
     0
281
     0
  7
STANDARD
140
0.18
170
     2
 62
     0
 63
     7
283
     0
274
    -2
284
     1
 64
     0
275
    -2
285
     1
 65
     0
276
    -2
286
     1
 66
     0
277
    -2
287
     1
 67
     0
278
    -2
288
     1
 68
     0
279
    -2
289
     1
 69
     0
  7
STANDARD
140
0.25
170
     5
 62
     0
 63
     7
283
     0
274
    -2
284
     1
 64
     0
275
    -2
285
     1
 65
     0
276
    -2
286
     1
 66
     0
277
    -2
287
     1
 67
     0
278
    -2
288
     1
 68
     0
279
    -2
289
     1
 69
     0
  7
STANDARD
140
0.18
170
     5
 62
     0
 63
     7
283
     0
274
    -2
284
     1
 64
     0
275
    -2
285
     1
 65
     0
276
    -2
286
     1
 66
     0
277
    -2
287
     1
 67
     0
278
    -2
288
     1
 68
     0
279
    -2
289
     1
 69
     0
  0
VISUALSTYLE
  5
42E6
102
{ACAD_XDICTIONARY
360
5CB8
102
}
102
{ACAD_REACTORS
330
42E0
102
}
330
42E0
100
AcDbVisualStyle
  2

 70
     4
 71
     0
 72
     2
 73
     0
 90
        0
 40
-0.6
 41
-30.0
 62
     5
 63
     7
 74
     1
 91
        4
 64
     7
 65
   257
 75
     1
175
     1
 42
1.0
 92
        0
 66
   257
 43
1.0
 76
     1
 77
     6
 78
     2
 67
     7
 79
     5
170
     0
171
     0
290
     0
174
     0
 93
        1
 44
0.0
173
     0
291
     0
 45
0.0
1001
ACAD
1000
AcDbSavedByObjectVersion
1070
     0
  0
VISUALSTYLE
  5
42E8
102
{ACAD_XDICTIONARY
360
5CBC
102
}
102
{ACAD_REACTORS
330
42E0
102
}
330
42E0
100
AcDbVisualStyle
  2

 70
     6
 71
     1
 72
     2
 73
     2
 90
        0
 40
-0.6
 41
-30.0
 62
     5
 63
     7
 74
     2
 91
        2
 64
     7
 65
   257
 75
     2
175
     1
 42
179.0
 92
        0
 66
   257
 43
1.0
 76
     1
 77
     6
 78
     2
 67
     7
 79
     3
170
     0
171
     0
290
     0
174
     0
 93
        1
 44
0.0
173
     0
291
     0
 45
0.0
1001
ACAD
1000
AcDbSavedByObjectVersion
1070
     0
  0
VISUALSTYLE
  5
42E7
102
{ACAD_XDICTIONARY
360
5CBA
102
}
102
{ACAD_REACTORS
330
42E0
102
}
330
42E0
100
AcDbVisualStyle
  2

 70
     5
 71
     0
 72
     2
 73
     0
 90
        0
 40
-0.6
 41
-30.0
 62
     5
 63
     7
 74
     1
 91
        4
 64
     7
 65
   257
 75
     1
175
     1
 42
1.0
 92
        0
 66
   257
 43
1.0
 76
     1
 77
     6
 78
     2
 67
     7
 79
     5
170
     0
171
     0
290
     0
174
     0
 93
        1
 44
0.0
173
     0
291
     0
 45
0.0
1001
ACAD
1000
AcDbSavedByObjectVersion
1070
     0
  0
VISUALSTYLE
  5
42E5
102
{ACAD_XDICTIONARY
360
5CB6
102
}
102
{ACAD_REACTORS
330
42E0
102
}
330
42E0
100
AcDbVisualStyle
  2

 70
     7
 71
     1
 72
     0
 73
     1
 90
        0
 40
-0.6
 41
-30.0
 62
     5
 63
     7
 74
     0
 91
        4
 64
     7
 65
   257
 75
     1
175
     1
 42
1.0
 92
        8
 66
     7
 43
1.0
 76
     1
 77
     6
 78
     2
 67
     7
 79
     5
170
     0
171
     0
290
     0
174
     0
 93
        1
 44
0.0
173
     0
291
     1
 45
0.0
1001
ACAD
1000
AcDbSavedByObjectVersion
1070
     0
  0
VISUALSTYLE
  5
42EC
102
{ACAD_XDICTIONARY
360
5CC4
102
}
102
{ACAD_REACTORS
330
42E0
102
}
330
42E0
100
AcDbVisualStyle
  2

 70
    12
 71
     2
 72
     2
 73
     0
 90
        0
 40
-0.6
 41
-30.0
 62
     5
 63
     7
 74
     1
 91
        4
 64
     7
 65
   257
 75
     1
175
     1
 42
1.0
 92
        8
 66
     7
 43
1.0
 76
     1
 77
     6
 78
     2
 67
     7
 79
     5
170
     0
171
     0
290
     0
174
     0
 93
        1
 44
50.0
173
     0
291
     1
 45
0.0
1001
ACAD
1000
AcDbSavedByObjectVersion
1070
     0
  0
VISUALSTYLE
  5
42F0
102
{ACAD_XDICTIONARY
360
5CCC
102
}
102
{ACAD_REACTORS
330
42E0
102
}
330
42E0
100
AcDbVisualStyle
  2

 70
    16
 71
     2
 72
     2
 73
     3
 90
        0
 40
-0.6
 41
-30.0
 62
     5
 63
     8
 74
     1
 91
        4
 64
     7
 65
   257
 75
     1
175
     1
 42
1.0
 92
        8
 66
     8
 43
1.0
 76
     1
 77
     6
 78
     2
 67
     7
 79
     5
170
     0
171
     0
290
     0
174
     0
 93
        1
 44
0.0
173
     0
291
     1
 45
0.0
1001
ACAD
1000
AcDbSavedByObjectVersion
1070
     0
  0
VISUALSTYLE
  5
42E9
102
{ACAD_XDICTIONARY
360
5CBE
102
}
102
{ACAD_REACTORS
330
42E0
102
}
330
42E0
100
AcDbVisualStyle
  2

 70
     9
 71
     3
 72
     2
 73
     0
 90
        0
 40
-0.6
 41
-30.0
 62
     5
 63
     7
 74
     2
 91
        2
 64
     7
 65
   257
 75
     1
175
     1
 42
179.0
 92
        8
 66
     7
 43
1.0
 76
     1
 77
     6
 78
     2
 67
     7
 79
     3
170
     0
171
     0
290
     0
174
     0
 93
        1
 44
0.0
173
     0
291
     0
 45
0.0
1001
ACAD
1000
AcDbSavedByObjectVersion
1070
     0
  0
VISUALSTYLE
  5
42EB
102
{ACAD_XDICTIONARY
360
5CC2
102
}
102
{ACAD_REACTORS
330
42E0
102
}
330
42E0
100
AcDbVisualStyle
  2

 70
    11
 71
     2
 72
     2
 73
     0
 90
        0
 40
-0.6
 41
-30.0
 62
     5
 63
     7
 74
     1
 91
        4
 64
     7
 65
   257
 75
     1
175
     1
 42
1.0
 92
        8
 66
     7
 43
1.0
 76
     1
 77
     6
 78
     2
 67
     7
 79
     5
170
     0
171
     0
290
     0
174
     0
 93
        1
 44
-50.0
173
     0
291
     1
 45
0.0
1001
ACAD
1000
AcDbSavedByObjectVersion
1070
     0
  0
VISUALSTYLE
  5
42F3
102
{ACAD_XDICTIONARY
360
5CD2
102
}
102
{ACAD_REACTORS
330
42E0
102
}
330
42E0
100
AcDbVisualStyle
  2

 70
    22
 71
     2
 72
     2
 73
     0
 90
        0
 40
-0.6
 41
-30.0
 62
     5
 63
     7
 74
     1
 91
        4
 64
     7
 65
   257
 75
     1
175
     1
 42
1.0
 92
        8
 66
     7
 43
1.0
 76
     1
 77
     6
 78
     2
 67
     7
 79
     5
170
     0
171
     0
290
     0
174
     0
 93
        1
 44
0.0
173
     0
291
     1
 45
0.0
1001
ACAD
1000
AcDbSavedByObjectVersion
1070
     0
  0
VISUALSTYLE
  5
42EF
102
{ACAD_XDICTIONARY
360
5CCA
102
}
102
{ACAD_REACTORS
330
42E0
102
}
330
42E0
100
AcDbVisualStyle
  2

 70
    15
 71
     2
 72
     2
 73
     0
 90
        0
 40
-0.6
 41
-30.0
 62
     5
 63
     7
 74
     1
 91
        4
 64
     7
 65
   257
 75
     1
175
     1
 42
1.0
 92
        8
 66
     7
 43
1.0
 76
     1
 77
     6
 78
     2
 67
     7
 79
     5
170
     0
171
     0
290
     0
174
     0
 93
        1
 44
0.0
173
     0
291
     1
 45
0.0
1001
ACAD
1000
AcDbSavedByObjectVersion
1070
     0
  0
VISUALSTYLE
  5
42E1
102
{ACAD_XDICTIONARY
360
5CAE
102
}
102
{ACAD_REACTORS
330
42E0
102
}
330
42E0
100
AcDbVisualStyle
  2

 70
     0
 71
     2
 72
     1
 73
     1
 90
        2
 40
-0.6
 41
30.0
 62
     5
 63
     7
 74
     0
 91
        4
 64
     7
 65
   257
 75
     1
175
     1
 42
1.0
 92
        8
 66
     7
 43
1.0
 76
     1
 77
     6
 78
     2
 67
     7
 79
     5
170
     0
171
     0
290
     0
174
     0
 93
       13
 44
0.0
173
     0
291
     1
 45
0.0
1001
ACAD
1000
AcDbSavedByObjectVersion
1070
     0
  0
VISUALSTYLE
  5
42E2
102
{ACAD_XDICTIONARY
360
5CB0
102
}
102
{ACAD_REACTORS
330
42E0
102
}
330
42E0
100
AcDbVisualStyle
  2

 70
     1
 71
     2
 72
     1
 73
     1
 90
        2
 40
-0.6
 41
30.0
 62
     5
 63
     7
 74
     1
 91
        4
 64
     7
 65
   257
 75
     1
175
     1
 42
1.0
 92
        0
 66
   257
 43
1.0
 76
     1
 77
     6
 78
     2
 67
     7
 79
     5
170
     0
171
     0
290
     0
174
     0
 93
       13
 44
0.0
173
     0
291
     1
 45
0.0
1001
ACAD
1000
AcDbSavedByObjectVersion
1070
     0
  0
VISUALSTYLE
  5
42E3
102
{ACAD_XDICTIONARY
360
5CB2
102
}
102
{ACAD_REACTORS
330
42E0
102
}
330
42E0
100
AcDbVisualStyle
  2

 70
     2
 71
     2
 72
     2
 73
     1
 90
        2
 40
-0.6
 41
30.0
 62
     5
 63
     7
 74
     0
 91
        4
 64
     7
 65
   257
 75
     1
175
     1
 42
1.0
 92
        0
 66
     7
 43
1.0
 76
     1
 77
     6
 78
     2
 67
     7
 79
     5
170
     0
171
     0
290
     0
174
     0
 93
       13
 44
0.0
173
     0
291
     1
 45
0.0
1001
ACAD
1000
AcDbSavedByObjectVersion
1070
     0
  0
VISUALSTYLE
  5
42E4
102
{ACAD_XDICTIONARY
360
5CB4
102
}
102
{ACAD_REACTORS
330
42E0
102
}
330
42E0
100
AcDbVisualStyle
  2

 70
     3
 71
     2
 72
     2
 73
     1
 90
        2
 40
-0.6
 41
30.0
 62
     5
 63
     7
 74
     1
 91
        4
 64
     7
 65
   257
 75
     1
175
     1
 42
1.0
 92
        0
 66
   257
 43
1.0
 76
     1
 77
     6
 78
     2
 67
     7
 79
     5
170
     0
171
     0
290
     0
174
     0
 93
       13
 44
0.0
173
     0
291
     1
 45
0.0
1001
ACAD
1000
AcDbSavedByObjectVersion
1070
     0
  0
VISUALSTYLE
  5
42F1
102
{ACAD_XDICTIONARY
360
5CCE
102
}
102
{ACAD_REACTORS
330
42E0
102
}
330
42E0
100
AcDbVisualStyle
  2

 70
    20
 71
     2
 72
     2
 73
     0
 90
        0
 40
-0.6
 41
-30.0
 62
     5
 63
     7
 74
     1
 91
        4
 64
     7
 65
   257
 75
     1
175
     1
 42
1.0
 92
       10
 66
     7
 43
1.0
 76
     1
 77
     6
 78
     2
 67
     7
 79
     5
170
     0
171
     0
290
     0
174
     0
 93
        1
 44
0.0
173
     0
291
     1
 45
0.0
1001
ACAD
1000
AcDbSavedByObjectVersion
1070
     0
  0
VISUALSTYLE
  5
42EE
102
{ACAD_XDICTIONARY
360
5CC8
102
}
102
{ACAD_REACTORS
330
42E0
102
}
330
42E0
100
AcDbVisualStyle
  2

 70
    14
 71
     2
 72
     2
 73
     0
 90
        0
 40
-0.6
 41
-30.0
 62
     5
 63
     7
 74
     1
 91
        4
 64
     7
 65
   257
 75
     7
175
     7
 42
1.0
 92
        8
 66
     7
 43
1.0
 76
     1
 77
     6
 78
     2
 67
     7
 79
     5
170
     0
171
     0
290
     0
174
     0
 93
        1
 44
0.0
173
     0
291
     1
 45
0.0
1001
ACAD
1000
AcDbSavedByObjectVersion
1070
     0
  0
VISUALSTYLE
  5
42F2
102
{ACAD_XDICTIONARY
360
5CD0
102
}
102
{ACAD_REACTORS
330
42E0
102
}
330
42E0
100
AcDbVisualStyle
  2

 70
    21
 71
     2
 72
     2
 73
     0
 90
        0
 40
-0.6
 41
-30.0
 62
     5
 63
     7
 74
     1
 91
        4
 64
     7
 65
   257
 75
     1
175
     1
 42
1.0
 92
        9
 66
     7
 43
1.0
 76
     1
 77
     6
 78
     2
 67
     7
 79
     5
170
     0
171
     0
290
     0
174
     0
 93
        1
 44
0.0
173
     0
291
     1
 45
0.0
1001
ACAD
1000
AcDbSavedByObjectVersion
1070
     0
  0
VISUALSTYLE
  5
42EA
102
{ACAD_XDICTIONARY
360
5CC0
102
}
102
{ACAD_REACTORS
330
42E0
102
}
330
42E0
100
AcDbVisualStyle
  2

 70
     8
 71
     2
 72
     2
 73
     0
 90
        0
 40
-0.6
 41
-30.0
 62
     5
 63
     7
 74
     1
 91
        0
 64
     7
 65
   257
 75
     1
175
     1
 42
1.0
 92
        8
 66
     8
 43
1.0
 76
     1
 77
     6
 78
     2
 67
     7
 79
     5
170
     0
171
     0
290
     0
174
     0
 93
       13
 44
0.0
173
     0
291
     0
 45
0.0
1001
ACAD
1000
AcDbSavedByObjectVersion
1070
     0
  0
VISUALSTYLE
  5
42ED
102
{ACAD_XDICTIONARY
360
5CC6
102
}
102
{ACAD_REACTORS
330
42E0
102
}
330
42E0
100
AcDbVisualStyle
  2

 70
    13
 71
     2
 72
     2
 73
     0
 90
        0
 40
-0.6
 41
-30.0
 62
     5
 63
     7
 74
     1
 91
        4
 64
     7
 65
   257
 75
     1
175
     1
 42
1.0
 92
       12
 66
     7
 43
1.0
 76
     1
 77
     6
 78
     2
 67
     7
 79
     5
170
     0
171
     0
290
     0
174
     0
 93
        1
 44
0.0
173
     0
291
     1
 45
0.0
1001
ACAD
1000
AcDbSavedByObjectVersion
1070
     0
  0
DICTIONARYVAR
  5
49F5
102
{ACAD_REACTORS
330
49F2
102
}
330
49F2
100
DictionaryVariables
280
     0
  1
1:1
  0
DICTIONARYVAR
  5
49F4
102
{ACAD_REACTORS
330
49F2
102
}
330
49F2
100
DictionaryVariables
280
     0
  1
STANDARD
  0
DICTIONARYVAR
  5
49F3
102
{ACAD_REACTORS
330
49F2
102
}
330
49F2
100
DictionaryVariables
280
     0
  1
STANDARD
  0
DICTIONARYVAR
  5
49F8
102
{ACAD_REACTORS
330
49F2
102
}
330
49F2
100
DictionaryVariables
280
     0
  1
1
  0
DICTIONARYVAR
  5
49F7
102
{ACAD_REACTORS
330
49F2
102
}
330
49F2
100
DictionaryVariables
280
     0
  1
0
  0
DICTIONARYVAR
  5
49F6
102
{ACAD_REACTORS
330
49F2
102
}
330
49F2
100
DictionaryVariables
280
     0
  1
127
  0
DICTIONARYVAR
  5
5CA2
102
{ACAD_REACTORS
330
49F2
102
}
330
49F2
100
DictionaryVariables
280
     0
  1
2
  0
DICTIONARY
  5
44CA
102
{ACAD_REACTORS
330
44C0
102
}
330
44C0
100
AcDbDictionary
281
     1
  0
VLO-VL
  5
44E5
102
{ACAD_REACTORS
330
44E4
102
}
330
44E4
100
vlo_VL
 90
   -64512
 91
       12
 92
        1
 40
2.5
300
(&VLO-R . 0)
  0
DICTIONARY
  5
5CD7
330
4330
100
AcDbDictionary
280
     1
281
     1
  3
ACAD_XREC_ROUNDTRIP
360
5CD8
  0
DICTIONARY
  5
5CD5
330
432C
100
AcDbDictionary
280
     1
281
     1
  3
ACAD_XREC_ROUNDTRIP
360
5CD6
  0
DICTIONARY
  5
42D1
330
42D0
100
AcDbDictionary
280
     1
281
     1
  3
ACAD_XREC_ROUNDTRIP
360
4A03
  3
BUMPTILE
360
42D3
  3
DIFFUSETILE
360
42D2
  3
OPACITYTILE
360
42D6
  3
REFLECTIONTILE
360
42D5
  3
REFRACTIONTILE
360
42D7
  3
SPECULARTILE
360
42D4
  0
DICTIONARY
  5
42C9
330
42C8
100
AcDbDictionary
280
     1
281
     1
  3
ACAD_XREC_ROUNDTRIP
360
4A02
  3
BUMPTILE
360
42CB
  3
DIFFUSETILE
360
42CA
  3
OPACITYTILE
360
42CE
  3
REFLECTIONTILE
360
42CD
  3
REFRACTIONTILE
360
42CF
  3
SPECULARTILE
360
42CC
  0
DICTIONARY
  5
42D9
330
42D8
100
AcDbDictionary
280
     1
281
     1
  3
ACAD_XREC_ROUNDTRIP
360
4A04
  3
BUMPTILE
360
42DB
  3
DIFFUSETILE
360
42DA
  3
OPACITYTILE
360
42DE
  3
REFLECTIONTILE
360
42DD
  3
REFRACTIONTILE
360
42DF
  3
SPECULARTILE
360
42DC
  0
DICTIONARY
  5
49FA
330
4326
100
AcDbDictionary
280
     1
281
     1
  3
ACAD_ROUNDTRIP_2008_TABLESTYLE_CELLSTYLEMAP
360
5CA3
  3
ACAD_XREC_ROUNDTRIP
360
5CD4
  0
DICTIONARY
  5
5CB8
330
42E6
100
AcDbDictionary
280
     1
281
     1
  3
ACAD_XREC_ROUNDTRIP
360
5CB9
  0
DICTIONARY
  5
5CBC
330
42E8
100
AcDbDictionary
280
     1
281
     1
  3
ACAD_XREC_ROUNDTRIP
360
5CBD
  0
DICTIONARY
  5
5CBA
330
42E7
100
AcDbDictionary
280
     1
281
     1
  3
ACAD_XREC_ROUNDTRIP
360
5CBB
  0
DICTIONARY
  5
5CB6
330
42E5
100
AcDbDictionary
280
     1
281
     1
  3
ACAD_XREC_ROUNDTRIP
360
5CB7
  0
DICTIONARY
  5
5CC4
330
42EC
100
AcDbDictionary
280
     1
281
     1
  3
ACAD_XREC_ROUNDTRIP
360
5CC5
  0
DICTIONARY
  5
5CCC
330
42F0
100
AcDbDictionary
280
     1
281
     1
  3
ACAD_XREC_ROUNDTRIP
360
5CCD
  0
DICTIONARY
  5
5CBE
330
42E9
100
AcDbDictionary
280
     1
281
     1
  3
ACAD_XREC_ROUNDTRIP
360
5CBF
  0
DICTIONARY
  5
5CC2
330
42EB
100
AcDbDictionary
280
     1
281
     1
  3
ACAD_XREC_ROUNDTRIP
360
5CC3
  0
DICTIONARY
  5
5CD2
330
42F3
100
AcDbDictionary
280
     1
281
     1
  3
ACAD_XREC_ROUNDTRIP
360
5CD3
  0
DICTIONARY
  5
5CCA
330
42EF
100
AcDbDictionary
280
     1
281
     1
  3
ACAD_XREC_ROUNDTRIP
360
5CCB
  0
DICTIONARY
  5
5CAE
330
42E1
100
AcDbDictionary
280
     1
281
     1
  3
ACAD_XREC_ROUNDTRIP
360
5CAF
  0
DICTIONARY
  5
5CB0
330
42E2
100
AcDbDictionary
280
     1
281
     1
  3
ACAD_XREC_ROUNDTRIP
360
5CB1
  0
DICTIONARY
  5
5CB2
330
42E3
100
AcDbDictionary
280
     1
281
     1
  3
ACAD_XREC_ROUNDTRIP
360
5CB3
  0
DICTIONARY
  5
5CB4
330
42E4
100
AcDbDictionary
280
     1
281
     1
  3
ACAD_XREC_ROUNDTRIP
360
5CB5
  0
DICTIONARY
  5
5CCE
330
42F1
100
AcDbDictionary
280
     1
281
     1
  3
ACAD_XREC_ROUNDTRIP
360
5CCF
  0
DICTIONARY
  5
5CC8
330
42EE
100
AcDbDictionary
280
     1
281
     1
  3
ACAD_XREC_ROUNDTRIP
360
5CC9
  0
DICTIONARY
  5
5CD0
330
42F2
100
AcDbDictionary
280
     1
281
     1
  3
ACAD_XREC_ROUNDTRIP
360
5CD1
  0
DICTIONARY
  5
5CC0
330
42EA
100
AcDbDictionary
280
     1
281
     1
  3
ACAD_XREC_ROUNDTRIP
360
5CC1
  0
DICTIONARY
  5
5CC6
330
42ED
100
AcDbDictionary
280
     1
281
     1
  3
ACAD_XREC_ROUNDTRIP
360
5CC7
  0
XRECORD
  5
5CD8
102
{ACAD_REACTORS
330
5CD7
102
}
330
5CD7
100
AcDbXrecord
280
     1
102
SHADEPLOT
 70
     0
102
SHADEPLOTRESLEVEL
 70
     2
102
SHADEPLOTCUSTOMDPI
 70
   300
  0
XRECORD
  5
5CD6
102
{ACAD_REACTORS
330
5CD5
102
}
330
5CD5
100
AcDbXrecord
280
     1
102
SHADEPLOT
 70
     0
102
SHADEPLOTRESLEVEL
 70
     2
102
SHADEPLOTCUSTOMDPI
 70
   300
  0
XRECORD
  5
4A03
102
{ACAD_REACTORS
330
42D1
102
}
330
42D1
100
AcDbXrecord
280
     1
102
MATERIAL
148
0.0
149
0.0
149
0.0
 93
        0
 94
      127
282
     0
 72
     0
 77
     0
171
     0
175
     0
179
     0
273
     0
  0
XRECORD
  5
42D3
102
{ACAD_REACTORS
330
42D1
102
}
330
42D1
100
AcDbXrecord
280
     1
270
     1
271
     1
  0
XRECORD
  5
42D2
102
{ACAD_REACTORS
330
42D1
102
}
330
42D1
100
AcDbXrecord
280
     1
270
     1
271
     1
  0
XRECORD
  5
42D6
102
{ACAD_REACTORS
330
42D1
102
}
330
42D1
100
AcDbXrecord
280
     1
270
     1
271
     1
  0
XRECORD
  5
42D5
102
{ACAD_REACTORS
330
42D1
102
}
330
42D1
100
AcDbXrecord
280
     1
270
     1
271
     1
  0
XRECORD
  5
42D7
102
{ACAD_REACTORS
330
42D1
102
}
330
42D1
100
AcDbXrecord
280
     1
270
     1
271
     1
  0
XRECORD
  5
42D4
102
{ACAD_REACTORS
330
42D1
102
}
330
42D1
100
AcDbXrecord
280
     1
270
     1
271
     1
  0
XRECORD
  5
4A02
102
{ACAD_REACTORS
330
42C9
102
}
330
42C9
100
AcDbXrecord
280
     1
102
MATERIAL
148
0.0
149
0.0
149
0.0
 93
        0
 94
      127
282
     0
 72
     0
 77
     0
171
     0
175
     0
179
     0
273
     0
  0
XRECORD
  5
42CB
102
{ACAD_REACTORS
330
42C9
102
}
330
42C9
100
AcDbXrecord
280
     1
270
     1
271
     1
  0
XRECORD
  5
42CA
102
{ACAD_REACTORS
330
42C9
102
}
330
42C9
100
AcDbXrecord
280
     1
270
     1
271
     1
  0
XRECORD
  5
42CE
102
{ACAD_REACTORS
330
42C9
102
}
330
42C9
100
AcDbXrecord
280
     1
270
     1
271
     1
  0
XRECORD
  5
42CD
102
{ACAD_REACTORS
330
42C9
102
}
330
42C9
100
AcDbXrecord
280
     1
270
     1
271
     1
  0
XRECORD
  5
42CF
102
{ACAD_REACTORS
330
42C9
102
}
330
42C9
100
AcDbXrecord
280
     1
270
     1
271
     1
  0
XRECORD
  5
42CC
102
{ACAD_REACTORS
330
42C9
102
}
330
42C9
100
AcDbXrecord
280
     1
270
     1
271
     1
  0
XRECORD
  5
4A04
102
{ACAD_REACTORS
330
42D9
102
}
330
42D9
100
AcDbXrecord
280
     1
102
MATERIAL
148
0.0
149
0.0
149
0.0
 93
        0
 94
      127
282
     0
 72
     0
 77
     0
171
     0
175
     0
179
     0
273
     0
  0
XRECORD
  5
42DB
102
{ACAD_REACTORS
330
42D9
102
}
330
42D9
100
AcDbXrecord
280
     1
270
     1
271
     1
  0
XRECORD
  5
42DA
102
{ACAD_REACTORS
330
42D9
102
}
330
42D9
100
AcDbXrecord
280
     1
270
     1
271
     1
  0
XRECORD
  5
42DE
102
{ACAD_REACTORS
330
42D9
102
}
330
42D9
100
AcDbXrecord
280
     1
270
     1
271
     1
  0
XRECORD
  5
42DD
102
{ACAD_REACTORS
330
42D9
102
}
330
42D9
100
AcDbXrecord
280
     1
270
     1
271
     1
  0
XRECORD
  5
42DF
102
{ACAD_REACTORS
330
42D9
102
}
330
42D9
100
AcDbXrecord
280
     1
270
     1
271
     1
  0
XRECORD
  5
42DC
102
{ACAD_REACTORS
330
42D9
102
}
330
42D9
100
AcDbXrecord
280
     1
270
     1
271
     1
  0
CELLSTYLEMAP
  5
5CA3
102
{ACAD_REACTORS
330
49FA
102
}
330
49FA
100
AcDbCellStyleMap
 90
        3
300
CELLSTYLE
  1
TABLEFORMAT_BEGIN
 90
        5
170
     1
 91
        0
 92
    32768
 62
   257
 93
        1
300
CONTENTFORMAT
  1
CONTENTFORMAT_BEGIN
 90
        0
 91
        0
 92
      512
 93
        0
300

 40
0.0
140
1.0
 94
        5
 62
     0
340
4317
144
0.25
309
CONTENTFORMAT_END
171
     1
301
MARGIN
  1
CELLMARGIN_BEGIN
 40
0.06
 40
0.06
 40
0.06
 40
0.06
 40
0.18
 40
0.18
309
CELLMARGIN_END
 94
        6
 95
        1
302
GRIDFORMAT
  1
GRIDFORMAT_BEGIN
 90
        0
 91
        1
 62
     0
 92
       -2
340
0
 93
        0
 40
0.045
309
GRIDFORMAT_END
 95
        2
302
GRIDFORMAT
  1
GRIDFORMAT_BEGIN
 90
        0
 91
        1
 62
     0
 92
       -2
340
0
 93
        0
 40
0.045
309
GRIDFORMAT_END
 95
        4
302
GRIDFORMAT
  1
GRIDFORMAT_BEGIN
 90
        0
 91
        1
 62
     0
 92
       -2
340
0
 93
        0
 40
0.045
309
GRIDFORMAT_END
 95
        8
302
GRIDFORMAT
  1
GRIDFORMAT_BEGIN
 90
        0
 91
        1
 62
     0
 92
       -2
340
0
 93
        0
 40
0.045
309
GRIDFORMAT_END
 95
       16
302
GRIDFORMAT
  1
GRIDFORMAT_BEGIN
 90
        0
 91
        1
 62
     0
 92
       -2
340
0
 93
        0
 40
0.045
309
GRIDFORMAT_END
 95
       32
302
GRIDFORMAT
  1
GRIDFORMAT_BEGIN
 90
        0
 91
        1
 62
     0
 92
       -2
340
0
 93
        0
 40
0.045
309
GRIDFORMAT_END
309
TABLEFORMAT_END
  1
CELLSTYLE_BEGIN
 90
        1
 91
        1
300
_TITLE
309
CELLSTYLE_END
300
CELLSTYLE
  1
TABLEFORMAT_BEGIN
 90
        5
170
     1
 91
        0
 92
        0
 62
   257
 93
        1
300
CONTENTFORMAT
  1
CONTENTFORMAT_BEGIN
 90
        0
 91
        0
 92
      512
 93
        0
300

 40
0.0
140
1.0
 94
        5
 62
     0
340
4317
144
0.18
309
CONTENTFORMAT_END
171
     1
301
MARGIN
  1
CELLMARGIN_BEGIN
 40
0.06
 40
0.06
 40
0.06
 40
0.06
 40
0.18
 40
0.18
309
CELLMARGIN_END
 94
        6
 95
        1
302
GRIDFORMAT
  1
GRIDFORMAT_BEGIN
 90
        0
 91
        1
 62
     0
 92
       -2
340
0
 93
        0
 40
0.045
309
GRIDFORMAT_END
 95
        2
302
GRIDFORMAT
  1
GRIDFORMAT_BEGIN
 90
        0
 91
        1
 62
     0
 92
       -2
340
0
 93
        0
 40
0.045
309
GRIDFORMAT_END
 95
        4
302
GRIDFORMAT
  1
GRIDFORMAT_BEGIN
 90
        0
 91
        1
 62
     0
 92
       -2
340
0
 93
        0
 40
0.045
309
GRIDFORMAT_END
 95
        8
302
GRIDFORMAT
  1
GRIDFORMAT_BEGIN
 90
        0
 91
        1
 62
     0
 92
       -2
340
0
 93
        0
 40
0.045
309
GRIDFORMAT_END
 95
       16
302
GRIDFORMAT
  1
GRIDFORMAT_BEGIN
 90
        0
 91
        1
 62
     0
 92
       -2
340
0
 93
        0
 40
0.045
309
GRIDFORMAT_END
 95
       32
302
GRIDFORMAT
  1
GRIDFORMAT_BEGIN
 90
        0
 91
        1
 62
     0
 92
       -2
340
0
 93
        0
 40
0.045
309
GRIDFORMAT_END
309
TABLEFORMAT_END
  1
CELLSTYLE_BEGIN
 90
        2
 91
        1
300
_HEADER
309
CELLSTYLE_END
300
CELLSTYLE
  1
TABLEFORMAT_BEGIN
 90
        5
170
     1
 91
        0
 92
        0
 62
   257
 93
        1
300
CONTENTFORMAT
  1
CONTENTFORMAT_BEGIN
 90
        0
 91
        0
 92
      512
 93
        0
300

 40
0.0
140
1.0
 94
        2
 62
     0
340
4317
144
0.18
309
CONTENTFORMAT_END
171
     1
301
MARGIN
  1
CELLMARGIN_BEGIN
 40
0.06
 40
0.06
 40
0.06
 40
0.06
 40
0.18
 40
0.18
309
CELLMARGIN_END
 94
        6
 95
        1
302
GRIDFORMAT
  1
GRIDFORMAT_BEGIN
 90
        0
 91
        1
 62
     0
 92
       -2
340
0
 93
        0
 40
0.045
309
GRIDFORMAT_END
 95
        2
302
GRIDFORMAT
  1
GRIDFORMAT_BEGIN
 90
        0
 91
        1
 62
     0
 92
       -2
340
0
 93
        0
 40
0.045
309
GRIDFORMAT_END
 95
        4
302
GRIDFORMAT
  1
GRIDFORMAT_BEGIN
 90
        0
 91
        1
 62
     0
 92
       -2
340
0
 93
        0
 40
0.045
309
GRIDFORMAT_END
 95
        8
302
GRIDFORMAT
  1
GRIDFORMAT_BEGIN
 90
        0
 91
        1
 62
     0
 92
       -2
340
0
 93
        0
 40
0.045
309
GRIDFORMAT_END
 95
       16
302
GRIDFORMAT
  1
GRIDFORMAT_BEGIN
 90
        0
 91
        1
 62
     0
 92
       -2
340
0
 93
        0
 40
0.045
309
GRIDFORMAT_END
 95
       32
302
GRIDFORMAT
  1
GRIDFORMAT_BEGIN
 90
        0
 91
        1
 62
     0
 92
       -2
340
0
 93
        0
 40
0.045
309
GRIDFORMAT_END
309
TABLEFORMAT_END
  1
CELLSTYLE_BEGIN
 90
        3
 91
        2
300
_DATA
309
CELLSTYLE_END
  0
XRECORD
  5
5CD4
102
{ACAD_REACTORS
330
49FA
102
}
330
49FA
100
AcDbXrecord
280
     1
102
ACAD_ROUNDTRIP_PRE2007_TABLESTYLE
 90
      512
 91
        0
  1

 92
      512
 93
        0
  2

 94
      512
 95
        0
  3

  0
XRECORD
  5
5CB9
102
{ACAD_REACTORS
330
5CB8
102
}
330
5CB8
100
AcDbXrecord
280
     1
102
RTVSPropertyOp0
 70
     1
102
RTVSPropertyOp1
 70
     1
102
RTVSPropertyOp2
 70
     1
102
RTVSPropertyOp3
 70
     1
102
RTVSPropertyOp4
 70
     1
102
RTVSPropertyOp5
 70
     1
102
RTVSPropertyOp6
 70
     1
102
RTVSPropertyOp7
 70
     1
102
RTVSPropertyOp8
 70
     1
102
RTVSPropertyOp9
 70
     1
102
RTVSPropertyOp10
 70
     1
102
RTVSPropertyOp11
 70
     1
102
RTVSPropertyOp12
 70
     1
102
RTVSPropertyOp13
 70
     1
102
RTVSPropertyOp14
 70
     1
102
RTVSPropertyOp15
 70
     1
102
RTVSPropertyOp16
 70
     1
102
RTVSPropertyOp17
 70
     1
102
RTVSPropertyOp18
 70
     1
102
RTVSPropertyOp19
 70
     1
102
RTVSPropertyOp20
 70
     1
102
RTVSPropertyOp21
 70
     1
102
RTVSPropertyOp22
 70
     1
102
RTVSPropertyOp23
 70
     1
102
RTVSPropertyOp24
 70
     1
102
RTVSPropertyOp25
 70
     1
102
RTVSPropertyOp26
 70
     1
102
RTVSPropertyOp27
 70
     1
  0
XRECORD
  5
5CBD
102
{ACAD_REACTORS
330
5CBC
102
}
330
5CBC
100
AcDbXrecord
280
     1
102
RTVSPropertyOp0
 70
     1
102
RTVSPropertyOp1
 70
     1
102
RTVSPropertyOp2
 70
     1
102
RTVSPropertyOp3
 70
     1
102
RTVSPropertyOp4
 70
     1
102
RTVSPropertyOp5
 70
     1
102
RTVSPropertyOp6
 70
     1
102
RTVSPropertyOp7
 70
     1
102
RTVSPropertyOp8
 70
     1
102
RTVSPropertyOp9
 70
     1
102
RTVSPropertyOp10
 70
     1
102
RTVSPropertyOp11
 70
     1
102
RTVSPropertyOp12
 70
     1
102
RTVSPropertyOp13
 70
     1
102
RTVSPropertyOp14
 70
     1
102
RTVSPropertyOp15
 70
     1
102
RTVSPropertyOp16
 70
     1
102
RTVSPropertyOp17
 70
     1
102
RTVSPropertyOp18
 70
     1
102
RTVSPropertyOp19
 70
     1
102
RTVSPropertyOp20
 70
     1
102
RTVSPropertyOp21
 70
     1
102
RTVSPropertyOp22
 70
     1
102
RTVSPropertyOp23
 70
     1
102
RTVSPropertyOp24
 70
     1
102
RTVSPropertyOp25
 70
     1
102
RTVSPropertyOp26
 70
     1
102
RTVSPropertyOp27
 70
     1
  0
XRECORD
  5
5CBB
102
{ACAD_REACTORS
330
5CBA
102
}
330
5CBA
100
AcDbXrecord
280
     1
102
RTVSPropertyOp0
 70
     1
102
RTVSPropertyOp1
 70
     1
102
RTVSPropertyOp2
 70
     1
102
RTVSPropertyOp3
 70
     1
102
RTVSPropertyOp4
 70
     1
102
RTVSPropertyOp5
 70
     1
102
RTVSPropertyOp6
 70
     1
102
RTVSPropertyOp7
 70
     1
102
RTVSPropertyOp8
 70
     1
102
RTVSPropertyOp9
 70
     1
102
RTVSPropertyOp10
 70
     1
102
RTVSPropertyOp11
 70
     1
102
RTVSPropertyOp12
 70
     1
102
RTVSPropertyOp13
 70
     1
102
RTVSPropertyOp14
 70
     1
102
RTVSPropertyOp15
 70
     1
102
RTVSPropertyOp16
 70
     1
102
RTVSPropertyOp17
 70
     1
102
RTVSPropertyOp18
 70
     1
102
RTVSPropertyOp19
 70
     1
102
RTVSPropertyOp20
 70
     1
102
RTVSPropertyOp21
 70
     1
102
RTVSPropertyOp22
 70
     1
102
RTVSPropertyOp23
 70
     1
102
RTVSPropertyOp24
 70
     1
102
RTVSPropertyOp25
 70
     1
102
RTVSPropertyOp26
 70
     1
102
RTVSPropertyOp27
 70
     1
  0
XRECORD
  5
5CB7
102
{ACAD_REACTORS
330
5CB6
102
}
330
5CB6
100
AcDbXrecord
280
     1
102
RTVSPropertyOp0
 70
     1
102
RTVSPropertyOp1
 70
     1
102
RTVSPropertyOp2
 70
     1
102
RTVSPropertyOp3
 70
     1
102
RTVSPropertyOp4
 70
     1
102
RTVSPropertyOp5
 70
     1
102
RTVSPropertyOp6
 70
     1
102
RTVSPropertyOp7
 70
     1
102
RTVSPropertyOp8
 70
     1
102
RTVSPropertyOp9
 70
     1
102
RTVSPropertyOp10
 70
     1
102
RTVSPropertyOp11
 70
     1
102
RTVSPropertyOp12
 70
     1
102
RTVSPropertyOp13
 70
     1
102
RTVSPropertyOp14
 70
     1
102
RTVSPropertyOp15
 70
     1
102
RTVSPropertyOp16
 70
     1
102
RTVSPropertyOp17
 70
     1
102
RTVSPropertyOp18
 70
     1
102
RTVSPropertyOp19
 70
     1
102
RTVSPropertyOp20
 70
     1
102
RTVSPropertyOp21
 70
     1
102
RTVSPropertyOp22
 70
     1
102
RTVSPropertyOp23
 70
     1
102
RTVSPropertyOp24
 70
     1
102
RTVSPropertyOp25
 70
     1
102
RTVSPropertyOp26
 70
     1
102
RTVSPropertyOp27
 70
     1
  0
XRECORD
  5
5CC5
102
{ACAD_REACTORS
330
5CC4
102
}
330
5CC4
100
AcDbXrecord
280
     1
102
RTVSPropertyOp0
 70
     1
102
RTVSPropertyOp1
 70
     1
102
RTVSPropertyOp2
 70
     1
102
RTVSPropertyOp3
 70
     1
102
RTVSPropertyOp4
 70
     1
102
RTVSPropertyOp5
 70
     1
102
RTVSPropertyOp6
 70
     1
102
RTVSPropertyOp7
 70
     1
102
RTVSPropertyOp8
 70
     1
102
RTVSPropertyOp9
 70
     1
102
RTVSPropertyOp10
 70
     1
102
RTVSPropertyOp11
 70
     1
102
RTVSPropertyOp12
 70
     1
102
RTVSPropertyOp13
 70
     1
102
RTVSPropertyOp14
 70
     1
102
RTVSPropertyOp15
 70
     1
102
RTVSPropertyOp16
 70
     1
102
RTVSPropertyOp17
 70
     1
102
RTVSPropertyOp18
 70
     1
102
RTVSPropertyOp19
 70
     1
102
RTVSPropertyOp20
 70
     1
102
RTVSPropertyOp21
 70
     1
102
RTVSPropertyOp22
 70
     1
102
RTVSPropertyOp23
 70
     1
102
RTVSPropertyOp24
 70
     1
102
RTVSPropertyOp25
 70
     1
102
RTVSPropertyOp26
 70
     1
102
RTVSPropertyOp27
 70
     1
  0
XRECORD
  5
5CCD
102
{ACAD_REACTORS
330
5CCC
102
}
330
5CCC
100
AcDbXrecord
280
     1
102
RTVSPropertyOp0
 70
     1
102
RTVSPropertyOp1
 70
     1
102
RTVSPropertyOp2
 70
     1
102
RTVSPropertyOp3
 70
     1
102
RTVSPropertyOp4
 70
     1
102
RTVSPropertyOp5
 70
     1
102
RTVSPropertyOp6
 70
     1
102
RTVSPropertyOp7
 70
     1
102
RTVSPropertyOp8
 70
     1
102
RTVSPropertyOp9
 70
     1
102
RTVSPropertyOp10
 70
     1
102
RTVSPropertyOp11
 70
     1
102
RTVSPropertyOp12
 70
     1
102
RTVSPropertyOp13
 70
     1
102
RTVSPropertyOp14
 70
     1
102
RTVSPropertyOp15
 70
     1
102
RTVSPropertyOp16
 70
     1
102
RTVSPropertyOp17
 70
     1
102
RTVSPropertyOp18
 70
     1
102
RTVSPropertyOp19
 70
     1
102
RTVSPropertyOp20
 70
     1
102
RTVSPropertyOp21
 70
     1
102
RTVSPropertyOp22
 70
     1
102
RTVSPropertyOp23
 70
     1
102
RTVSPropertyOp24
 70
     1
102
RTVSPropertyOp25
 70
     1
102
RTVSPropertyOp26
 70
     1
102
RTVSPropertyOp27
 70
     1
  0
XRECORD
  5
5CBF
102
{ACAD_REACTORS
330
5CBE
102
}
330
5CBE
100
AcDbXrecord
280
     1
102
RTVSPropertyOp0
 70
     1
102
RTVSPropertyOp1
 70
     1
102
RTVSPropertyOp2
 70
     1
102
RTVSPropertyOp3
 70
     1
102
RTVSPropertyOp4
 70
     1
102
RTVSPropertyOp5
 70
     1
102
RTVSPropertyOp6
 70
     1
102
RTVSPropertyOp7
 70
     1
102
RTVSPropertyOp8
 70
     1
102
RTVSPropertyOp9
 70
     1
102
RTVSPropertyOp10
 70
     1
102
RTVSPropertyOp11
 70
     1
102
RTVSPropertyOp12
 70
     1
102
RTVSPropertyOp13
 70
     1
102
RTVSPropertyOp14
 70
     1
102
RTVSPropertyOp15
 70
     1
102
RTVSPropertyOp16
 70
     1
102
RTVSPropertyOp17
 70
     1
102
RTVSPropertyOp18
 70
     1
102
RTVSPropertyOp19
 70
     1
102
RTVSPropertyOp20
 70
     1
102
RTVSPropertyOp21
 70
     1
102
RTVSPropertyOp22
 70
     1
102
RTVSPropertyOp23
 70
     1
102
RTVSPropertyOp24
 70
     1
102
RTVSPropertyOp25
 70
     1
102
RTVSPropertyOp26
 70
     1
102
RTVSPropertyOp27
 70
     1
  0
XRECORD
  5
5CC3
102
{ACAD_REACTORS
330
5CC2
102
}
330
5CC2
100
AcDbXrecord
280
     1
102
RTVSPropertyOp0
 70
     1
102
RTVSPropertyOp1
 70
     1
102
RTVSPropertyOp2
 70
     1
102
RTVSPropertyOp3
 70
     1
102
RTVSPropertyOp4
 70
     1
102
RTVSPropertyOp5
 70
     1
102
RTVSPropertyOp6
 70
     1
102
RTVSPropertyOp7
 70
     1
102
RTVSPropertyOp8
 70
     1
102
RTVSPropertyOp9
 70
     1
102
RTVSPropertyOp10
 70
     1
102
RTVSPropertyOp11
 70
     1
102
RTVSPropertyOp12
 70
     1
102
RTVSPropertyOp13
 70
     1
102
RTVSPropertyOp14
 70
     1
102
RTVSPropertyOp15
 70
     1
102
RTVSPropertyOp16
 70
     1
102
RTVSPropertyOp17
 70
     1
102
RTVSPropertyOp18
 70
     1
102
RTVSPropertyOp19
 70
     1
102
RTVSPropertyOp20
 70
     1
102
RTVSPropertyOp21
 70
     1
102
RTVSPropertyOp22
 70
     1
102
RTVSPropertyOp23
 70
     1
102
RTVSPropertyOp24
 70
     1
102
RTVSPropertyOp25
 70
     1
102
RTVSPropertyOp26
 70
     1
102
RTVSPropertyOp27
 70
     1
  0
XRECORD
  5
5CD3
102
{ACAD_REACTORS
330
5CD2
102
}
330
5CD2
100
AcDbXrecord
280
     1
102
RTVSPropertyOp0
 70
     0
102
RTVSPropertyOp1
 70
     0
102
RTVSPropertyOp2
 70
     0
102
RTVSPropertyOp3
 70
     0
102
RTVSPropertyOp4
 70
     0
102
RTVSPropertyOp5
 70
     0
102
RTVSPropertyOp6
 70
     0
102
RTVSPropertyOp7
 70
     0
102
RTVSPropertyOp8
 70
     0
102
RTVSPropertyOp9
 70
     0
102
RTVSPropertyOp10
 70
     0
102
RTVSPropertyOp11
 70
     0
102
RTVSPropertyOp12
 70
     0
102
RTVSPropertyOp13
 70
     0
102
RTVSPropertyOp14
 70
     2
102
RTVSPropertyOp15
 70
     0
102
RTVSPropertyOp16
 70
     0
102
RTVSPropertyOp17
 70
     0
102
RTVSPropertyOp18
 70
     0
102
RTVSPropertyOp19
 70
     0
102
RTVSPropertyOp20
 70
     0
102
RTVSPropertyOp21
 70
     0
102
RTVSPropertyOp22
 70
     0
102
RTVSPropertyOp23
 70
     0
102
RTVSPropertyOp24
 70
     0
102
RTVSPropertyOp25
 70
     0
102
RTVSPropertyOp26
 70
     0
102
RTVSPropertyOp27
 70
     0
  0
XRECORD
  5
5CCB
102
{ACAD_REACTORS
330
5CCA
102
}
330
5CCA
100
AcDbXrecord
280
     1
102
RTVSPropertyOp0
 70
     1
102
RTVSPropertyOp1
 70
     1
102
RTVSPropertyOp2
 70
     1
102
RTVSPropertyOp3
 70
     1
102
RTVSPropertyOp4
 70
     1
102
RTVSPropertyOp5
 70
     1
102
RTVSPropertyOp6
 70
     1
102
RTVSPropertyOp7
 70
     1
102
RTVSPropertyOp8
 70
     1
102
RTVSPropertyOp9
 70
     1
102
RTVSPropertyOp10
 70
     1
102
RTVSPropertyOp11
 70
     1
102
RTVSPropertyOp12
 70
     1
102
RTVSPropertyOp13
 70
     1
102
RTVSPropertyOp14
 70
     1
102
RTVSPropertyOp15
 70
     1
102
RTVSPropertyOp16
 70
     1
102
RTVSPropertyOp17
 70
     1
102
RTVSPropertyOp18
 70
     1
102
RTVSPropertyOp19
 70
     1
102
RTVSPropertyOp20
 70
     1
102
RTVSPropertyOp21
 70
     1
102
RTVSPropertyOp22
 70
     1
102
RTVSPropertyOp23
 70
     1
102
RTVSPropertyOp24
 70
     1
102
RTVSPropertyOp25
 70
     1
102
RTVSPropertyOp26
 70
     1
102
RTVSPropertyOp27
 70
     1
  0
XRECORD
  5
5CAF
102
{ACAD_REACTORS
330
5CAE
102
}
330
5CAE
100
AcDbXrecord
280
     1
102
RTVSPropertyOp0
 70
     1
102
RTVSPropertyOp1
 70
     1
102
RTVSPropertyOp2
 70
     1
102
RTVSPropertyOp3
 70
     1
102
RTVSPropertyOp4
 70
     1
102
RTVSPropertyOp5
 70
     1
102
RTVSPropertyOp6
 70
     1
102
RTVSPropertyOp7
 70
     1
102
RTVSPropertyOp8
 70
     1
102
RTVSPropertyOp9
 70
     1
102
RTVSPropertyOp10
 70
     1
102
RTVSPropertyOp11
 70
     1
102
RTVSPropertyOp12
 70
     1
102
RTVSPropertyOp13
 70
     1
102
RTVSPropertyOp14
 70
     1
102
RTVSPropertyOp15
 70
     1
102
RTVSPropertyOp16
 70
     1
102
RTVSPropertyOp17
 70
     1
102
RTVSPropertyOp18
 70
     1
102
RTVSPropertyOp19
 70
     1
102
RTVSPropertyOp20
 70
     1
102
RTVSPropertyOp21
 70
     1
102
RTVSPropertyOp22
 70
     1
102
RTVSPropertyOp23
 70
     1
102
RTVSPropertyOp24
 70
     1
102
RTVSPropertyOp25
 70
     1
102
RTVSPropertyOp26
 70
     1
102
RTVSPropertyOp27
 70
     1
  0
XRECORD
  5
5CB1
102
{ACAD_REACTORS
330
5CB0
102
}
330
5CB0
100
AcDbXrecord
280
     1
102
RTVSPropertyOp0
 70
     1
102
RTVSPropertyOp1
 70
     1
102
RTVSPropertyOp2
 70
     1
102
RTVSPropertyOp3
 70
     1
102
RTVSPropertyOp4
 70
     1
102
RTVSPropertyOp5
 70
     1
102
RTVSPropertyOp6
 70
     1
102
RTVSPropertyOp7
 70
     1
102
RTVSPropertyOp8
 70
     1
102
RTVSPropertyOp9
 70
     1
102
RTVSPropertyOp10
 70
     1
102
RTVSPropertyOp11
 70
     1
102
RTVSPropertyOp12
 70
     1
102
RTVSPropertyOp13
 70
     1
102
RTVSPropertyOp14
 70
     1
102
RTVSPropertyOp15
 70
     1
102
RTVSPropertyOp16
 70
     1
102
RTVSPropertyOp17
 70
     1
102
RTVSPropertyOp18
 70
     1
102
RTVSPropertyOp19
 70
     1
102
RTVSPropertyOp20
 70
     1
102
RTVSPropertyOp21
 70
     1
102
RTVSPropertyOp22
 70
     1
102
RTVSPropertyOp23
 70
     1
102
RTVSPropertyOp24
 70
     1
102
RTVSPropertyOp25
 70
     1
102
RTVSPropertyOp26
 70
     1
102
RTVSPropertyOp27
 70
     1
  0
XRECORD
  5
5CB3
102
{ACAD_REACTORS
330
5CB2
102
}
330
5CB2
100
AcDbXrecord
280
     1
102
RTVSPropertyOp0
 70
     1
102
RTVSPropertyOp1
 70
     1
102
RTVSPropertyOp2
 70
     1
102
RTVSPropertyOp3
 70
     1
102
RTVSPropertyOp4
 70
     1
102
RTVSPropertyOp5
 70
     1
102
RTVSPropertyOp6
 70
     1
102
RTVSPropertyOp7
 70
     1
102
RTVSPropertyOp8
 70
     1
102
RTVSPropertyOp9
 70
     1
102
RTVSPropertyOp10
 70
     1
102
RTVSPropertyOp11
 70
     1
102
RTVSPropertyOp12
 70
     1
102
RTVSPropertyOp13
 70
     1
102
RTVSPropertyOp14
 70
     1
102
RTVSPropertyOp15
 70
     1
102
RTVSPropertyOp16
 70
     1
102
RTVSPropertyOp17
 70
     1
102
RTVSPropertyOp18
 70
     1
102
RTVSPropertyOp19
 70
     1
102
RTVSPropertyOp20
 70
     1
102
RTVSPropertyOp21
 70
     1
102
RTVSPropertyOp22
 70
     1
102
RTVSPropertyOp23
 70
     1
102
RTVSPropertyOp24
 70
     1
102
RTVSPropertyOp25
 70
     1
102
RTVSPropertyOp26
 70
     1
102
RTVSPropertyOp27
 70
     1
  0
XRECORD
  5
5CB5
102
{ACAD_REACTORS
330
5CB4
102
}
330
5CB4
100
AcDbXrecord
280
     1
102
RTVSPropertyOp0
 70
     1
102
RTVSPropertyOp1
 70
     1
102
RTVSPropertyOp2
 70
     1
102
RTVSPropertyOp3
 70
     1
102
RTVSPropertyOp4
 70
     1
102
RTVSPropertyOp5
 70
     1
102
RTVSPropertyOp6
 70
     1
102
RTVSPropertyOp7
 70
     1
102
RTVSPropertyOp8
 70
     1
102
RTVSPropertyOp9
 70
     1
102
RTVSPropertyOp10
 70
     1
102
RTVSPropertyOp11
 70
     1
102
RTVSPropertyOp12
 70
     1
102
RTVSPropertyOp13
 70
     1
102
RTVSPropertyOp14
 70
     1
102
RTVSPropertyOp15
 70
     1
102
RTVSPropertyOp16
 70
     1
102
RTVSPropertyOp17
 70
     1
102
RTVSPropertyOp18
 70
     1
102
RTVSPropertyOp19
 70
     1
102
RTVSPropertyOp20
 70
     1
102
RTVSPropertyOp21
 70
     1
102
RTVSPropertyOp22
 70
     1
102
RTVSPropertyOp23
 70
     1
102
RTVSPropertyOp24
 70
     1
102
RTVSPropertyOp25
 70
     1
102
RTVSPropertyOp26
 70
     1
102
RTVSPropertyOp27
 70
     1
  0
XRECORD
  5
5CCF
102
{ACAD_REACTORS
330
5CCE
102
}
330
5CCE
100
AcDbXrecord
280
     1
102
RTVSPropertyOp0
 70
     0
102
RTVSPropertyOp1
 70
     0
102
RTVSPropertyOp2
 70
     0
102
RTVSPropertyOp3
 70
     0
102
RTVSPropertyOp4
 70
     0
102
RTVSPropertyOp5
 70
     0
102
RTVSPropertyOp6
 70
     0
102
RTVSPropertyOp7
 70
     0
102
RTVSPropertyOp8
 70
     0
102
RTVSPropertyOp9
 70
     0
102
RTVSPropertyOp10
 70
     0
102
RTVSPropertyOp11
 70
     0
102
RTVSPropertyOp12
 70
     0
102
RTVSPropertyOp13
 70
     0
102
RTVSPropertyOp14
 70
     2
102
RTVSPropertyOp15
 70
     0
102
RTVSPropertyOp16
 70
     0
102
RTVSPropertyOp17
 70
     0
102
RTVSPropertyOp18
 70
     0
102
RTVSPropertyOp19
 70
     0
102
RTVSPropertyOp20
 70
     0
102
RTVSPropertyOp21
 70
     0
102
RTVSPropertyOp22
 70
     0
102
RTVSPropertyOp23
 70
     0
102
RTVSPropertyOp24
 70
     0
102
RTVSPropertyOp25
 70
     0
102
RTVSPropertyOp26
 70
     0
102
RTVSPropertyOp27
 70
     0
  0
XRECORD
  5
5CC9
102
{ACAD_REACTORS
330
5CC8
102
}
330
5CC8
100
AcDbXrecord
280
     1
102
RTVSPropertyOp0
 70
     1
102
RTVSPropertyOp1
 70
     1
102
RTVSPropertyOp2
 70
     1
102
RTVSPropertyOp3
 70
     1
102
RTVSPropertyOp4
 70
     1
102
RTVSPropertyOp5
 70
     1
102
RTVSPropertyOp6
 70
     1
102
RTVSPropertyOp7
 70
     1
102
RTVSPropertyOp8
 70
     1
102
RTVSPropertyOp9
 70
     1
102
RTVSPropertyOp10
 70
     1
102
RTVSPropertyOp11
 70
     1
102
RTVSPropertyOp12
 70
     1
102
RTVSPropertyOp13
 70
     1
102
RTVSPropertyOp14
 70
     1
102
RTVSPropertyOp15
 70
     1
102
RTVSPropertyOp16
 70
     1
102
RTVSPropertyOp17
 70
     1
102
RTVSPropertyOp18
 70
     1
102
RTVSPropertyOp19
 70
     1
102
RTVSPropertyOp20
 70
     1
102
RTVSPropertyOp21
 70
     1
102
RTVSPropertyOp22
 70
     1
102
RTVSPropertyOp23
 70
     1
102
RTVSPropertyOp24
 70
     1
102
RTVSPropertyOp25
 70
     1
102
RTVSPropertyOp26
 70
     1
102
RTVSPropertyOp27
 70
     1
  0
XRECORD
  5
5CD1
102
{ACAD_REACTORS
330
5CD0
102
}
330
5CD0
100
AcDbXrecord
280
     1
102
RTVSPropertyOp0
 70
     0
102
RTVSPropertyOp1
 70
     0
102
RTVSPropertyOp2
 70
     0
102
RTVSPropertyOp3
 70
     0
102
RTVSPropertyOp4
 70
     0
102
RTVSPropertyOp5
 70
     0
102
RTVSPropertyOp6
 70
     0
102
RTVSPropertyOp7
 70
     0
102
RTVSPropertyOp8
 70
     0
102
RTVSPropertyOp9
 70
     0
102
RTVSPropertyOp10
 70
     0
102
RTVSPropertyOp11
 70
     0
102
RTVSPropertyOp12
 70
     0
102
RTVSPropertyOp13
 70
     0
102
RTVSPropertyOp14
 70
     2
102
RTVSPropertyOp15
 70
     0
102
RTVSPropertyOp16
 70
     0
102
RTVSPropertyOp17
 70
     0
102
RTVSPropertyOp18
 70
     0
102
RTVSPropertyOp19
 70
     0
102
RTVSPropertyOp20
 70
     0
102
RTVSPropertyOp21
 70
     0
102
RTVSPropertyOp22
 70
     0
102
RTVSPropertyOp23
 70
     0
102
RTVSPropertyOp24
 70
     0
102
RTVSPropertyOp25
 70
     0
102
RTVSPropertyOp26
 70
     0
102
RTVSPropertyOp27
 70
     0
  0
XRECORD
  5
5CC1
102
{ACAD_REACTORS
330
5CC0
102
}
330
5CC0
100
AcDbXrecord
280
     1
102
RTVSPropertyOp0
 70
     1
102
RTVSPropertyOp1
 70
     1
102
RTVSPropertyOp2
 70
     1
102
RTVSPropertyOp3
 70
     1
102
RTVSPropertyOp4
 70
     1
102
RTVSPropertyOp5
 70
     1
102
RTVSPropertyOp6
 70
     1
102
RTVSPropertyOp7
 70
     1
102
RTVSPropertyOp8
 70
     1
102
RTVSPropertyOp9
 70
     1
102
RTVSPropertyOp10
 70
     1
102
RTVSPropertyOp11
 70
     1
102
RTVSPropertyOp12
 70
     1
102
RTVSPropertyOp13
 70
     1
102
RTVSPropertyOp14
 70
     1
102
RTVSPropertyOp15
 70
     1
102
RTVSPropertyOp16
 70
     1
102
RTVSPropertyOp17
 70
     1
102
RTVSPropertyOp18
 70
     1
102
RTVSPropertyOp19
 70
     1
102
RTVSPropertyOp20
 70
     1
102
RTVSPropertyOp21
 70
     1
102
RTVSPropertyOp22
 70
     1
102
RTVSPropertyOp23
 70
     1
102
RTVSPropertyOp24
 70
     1
102
RTVSPropertyOp25
 70
     1
102
RTVSPropertyOp26
 70
     1
102
RTVSPropertyOp27
 70
     1
  0
XRECORD
  5
5CC7
102
{ACAD_REACTORS
330
5CC6
102
}
330
5CC6
100
AcDbXrecord
280
     1
102
RTVSPropertyOp0
 70
     1
102
RTVSPropertyOp1
 70
     1
102
RTVSPropertyOp2
 70
     1
102
RTVSPropertyOp3
 70
     1
102
RTVSPropertyOp4
 70
     1
102
RTVSPropertyOp5
 70
     1
102
RTVSPropertyOp6
 70
     1
102
RTVSPropertyOp7
 70
     1
102
RTVSPropertyOp8
 70
     1
102
RTVSPropertyOp9
 70
     1
102
RTVSPropertyOp10
 70
     1
102
RTVSPropertyOp11
 70
     1
102
RTVSPropertyOp12
 70
     1
102
RTVSPropertyOp13
 70
     1
102
RTVSPropertyOp14
 70
     1
102
RTVSPropertyOp15
 70
     1
102
RTVSPropertyOp16
 70
     1
102
RTVSPropertyOp17
 70
     1
102
RTVSPropertyOp18
 70
     1
102
RTVSPropertyOp19
 70
     1
102
RTVSPropertyOp20
 70
     1
102
RTVSPropertyOp21
 70
     1
102
RTVSPropertyOp22
 70
     1
102
RTVSPropertyOp23
 70
     1
102
RTVSPropertyOp24
 70
     1
102
RTVSPropertyOp25
 70
     1
102
RTVSPropertyOp26
 70
     1
102
RTVSPropertyOp27
 70
     1
  0
ENDSEC
  0
EOF
